<?xml version="1.0" standalone="no"?>
<!DOCTYPE svg PUBLIC "-//W3C//DTD SVG 1.1//EN" "http://www.w3.org/Graphics/SVG/1.1/DTD/svg11.dtd" >
<svg xmlns="http://www.w3.org/2000/svg" xmlns:xlink="http://www.w3.org/1999/xlink" version="1.1">
<metadata></metadata>
<defs>
<font id="mms_iconsregular" horiz-adv-x="2048" >
<font-face units-per-em="2048" ascent="1638" descent="-410" />
<missing-glyph horiz-adv-x="500" />
<glyph horiz-adv-x="0" />
<glyph horiz-adv-x="682" />
<glyph unicode="&#x25fc;" horiz-adv-x="500" d="M0 0z" />
<glyph unicode="&#xe000;" d="M1024 1664q209 0 398.5 -81t326.5 -218t218 -326.5t81 -398.5t-81 -398.5t-218 -326.5t-326.5 -218t-398.5 -81t-398.5 81t-326.5 218t-218 326.5t-81 398.5t81 398.5t218 326.5t326.5 218t398.5 81zM1024 -128q156 0 298 61t245 164t164 245t61 298t-61 298t-164 245 t-245 164t-298 61t-298 -61t-245 -164t-164 -245t-61 -298t61 -298t164 -245t245 -164t298 -61z" />
<glyph unicode="&#xe001;" d="M1024 1664q209 0 398.5 -81t326.5 -218t218 -326.5t81 -398.5t-81 -398.5t-218 -326.5t-326.5 -218t-398.5 -81t-398.5 81t-326.5 218t-218 326.5t-81 398.5t81 398.5t218 326.5t326.5 218t398.5 81zM1024 -128q156 0 298 61t245 164t164 245t61 298t-61 298t-164 245 t-245 164t-298 61t-298 -61t-245 -164t-164 -245t-61 -298t61 -298t164 -245t245 -164t298 -61zM795 728l76 -16q50 -11 86 -24.5t73 -37t56.5 -62.5t19.5 -91q0 -64 -29.5 -111.5t-77 -72.5t-98 -37t-103.5 -12q-99 0 -185 38t-131 117l114 78q71 -108 224 -108 q61 0 100 25t39 70q0 41 -30.5 58.5t-108.5 34.5l-92 21q-33 7 -58 15t-54.5 23.5t-49 36t-32.5 53t-13 73.5q0 99 76 162t210 63q184 0 292 -146l-112 -83q-68 107 -189 107q-15 0 -34.5 -3.5t-44 -11.5t-40.5 -27t-16 -46q0 -38 31 -55t101 -31zM1350 795h109v-88h-109 v-254q0 -41 12 -54q14 -15 46 -15q28 0 51 6v-104q-64 -8 -88 -8q-80 0 -112 29.5t-32 94.5v305h-75v88h75v182h123v-182z" />
<glyph unicode="&#xe002;" d="M1024 1664q209 0 398.5 -81t326.5 -218t218 -326.5t81 -398.5t-81 -398.5t-218 -326.5t-326.5 -218t-398.5 -81t-398.5 81t-326.5 218t-218 326.5t-81 398.5t81 398.5t218 326.5t326.5 218t398.5 81zM798 264q53 0 103.5 12t98 37t77 72.5t29.5 111.5q0 52 -19.5 91 t-56.5 62.5t-73 37t-86 24.5l-76 16q-70 14 -101 31t-31 55q0 27 16 46t40.5 27t44 11.5t34.5 3.5q121 0 189 -107l112 83q-108 146 -292 146q-134 0 -210 -63t-76 -162q0 -41 13 -73.5t32.5 -53t49 -36t54.5 -23.5t58 -15l92 -21q78 -17 108.5 -34.5t30.5 -58.5 q0 -45 -39 -70t-100 -25q-153 0 -224 108l-114 -78q45 -79 131 -117t185 -38zM1459 795h-109v182h-123v-182h-75v-88h75v-305q0 -65 32 -94.5t112 -29.5q24 0 88 8v104q-23 -6 -51 -6q-32 0 -46 15q-12 13 -12 54v254h109v88z" />
<glyph unicode="&#xe003;" d="M1024 1664q209 0 398.5 -81t326.5 -218t218 -326.5t81 -398.5t-81 -398.5t-218 -326.5t-326.5 -218t-398.5 -81t-398.5 81t-326.5 218t-218 326.5t-81 398.5t81 398.5t218 326.5t326.5 218t398.5 81zM929 548h164q159 0 236 77.5t77 203.5q0 130 -85 207.5t-220 77.5 h-333v-858h161v292zM929 977h122q30 0 50.5 -1.5t49.5 -9.5t46.5 -22t30.5 -42t13 -68q0 -155 -171 -155h-141v298z" />
<glyph unicode="&#xe004;" d="M1024 1664q209 0 398.5 -81t326.5 -218t218 -326.5t81 -398.5t-81 -398.5t-218 -326.5t-326.5 -218t-398.5 -81t-398.5 81t-326.5 218t-218 326.5t-81 398.5t81 398.5t218 326.5t326.5 218t398.5 81zM929 548h164q159 0 236 77.5t77 203.5q0 130 -85 207.5t-220 77.5 h-333v-858h161v292zM929 977h122q30 0 50.5 -1.5t49.5 -9.5t46.5 -22t30.5 -42t13 -68q0 -155 -171 -155h-141v298z" />
<glyph unicode="&#xe005;" d="M1024 1664q209 0 398.5 -81t326.5 -218t218 -326.5t81 -398.5t-81 -398.5t-218 -326.5t-326.5 -218t-398.5 -81t-398.5 81t-326.5 218t-218 326.5t-81 398.5t81 398.5t218 326.5t326.5 218t398.5 81zM1024 -128q156 0 298 61t245 164t164 245t61 298t-61 298t-164 245 t-245 164t-298 61t-298 -61t-245 -164t-164 -245t-61 -298t61 -298t164 -245t245 -164t298 -61zM1018 785l90 -20q46 -10 81.5 -21t74.5 -31t64.5 -46t42 -66t16.5 -90q0 -61 -23.5 -110t-60.5 -79.5t-86.5 -51t-97.5 -28.5t-97 -8q-117 0 -219.5 45t-156.5 139l135 93 q88 -129 267 -129q73 0 119 30t46 84q0 48 -36 68.5t-129 41.5l-110 25q-39 8 -68 17.5t-64.5 28.5t-58.5 43t-38.5 62.5t-15.5 86.5q0 117 90 192t249 75q218 0 346 -174l-132 -98q-79 128 -224 128q-18 0 -41 -4t-52 -14t-48 -32.5t-19 -54.5q0 -24 10.5 -41t35 -28.5 t46.5 -17.5t64 -15z" />
<glyph unicode="&#xe006;" d="M1024 1664q209 0 398.5 -81t326.5 -218t218 -326.5t81 -398.5t-81 -398.5t-218 -326.5t-326.5 -218t-398.5 -81t-398.5 81t-326.5 218t-218 326.5t-81 398.5t81 398.5t218 326.5t326.5 218t398.5 81zM1022 234q49 0 97 8t97.5 28.5t86.5 51t60.5 79.5t23.5 110 q0 50 -16.5 90t-42 66t-64.5 46t-74.5 31t-81.5 21l-90 20q-42 9 -64 15t-46.5 17.5t-35 28.5t-10.5 41q0 32 19 54.5t48 32.5t52 14t41 4q145 0 224 -128l132 98q-128 174 -346 174q-159 0 -249 -75t-90 -192q0 -48 15.5 -86.5t38.5 -62.5t58.5 -43t64.5 -28.5t68 -17.5 l110 -25q93 -21 129 -41.5t36 -68.5q0 -54 -46 -84t-119 -30q-179 0 -267 129l-135 -93q54 -94 156.5 -139t219.5 -45z" />
<glyph unicode="&#xe007;" d="M1024 1664q209 0 398.5 -81t326.5 -218t218 -326.5t81 -398.5t-81 -398.5t-218 -326.5t-326.5 -218t-398.5 -81t-398.5 81t-326.5 218t-218 326.5t-81 398.5t81 398.5t218 326.5t326.5 218t398.5 81zM1024 -128q156 0 298 61t245 164t164 245t61 298t-61 298t-164 245 t-245 164t-298 61t-298 -61t-245 -164t-164 -245t-61 -298t61 -298t164 -245t245 -164t298 -61zM1113 1114l293 -858h-171l-50 168h-322l-50 -168h-173l291 858h182zM1142 565l-118 395l-119 -395h237z" />
<glyph unicode="&#xe008;" d="M1024 1664q209 0 398.5 -81t326.5 -218t218 -326.5t81 -398.5t-81 -398.5t-218 -326.5t-326.5 -218t-398.5 -81t-398.5 81t-326.5 218t-218 326.5t-81 398.5t81 398.5t218 326.5t326.5 218t398.5 81zM1406 256l-293 858h-182l-291 -858h173l50 168h322l50 -168h171z M1024 960l118 -395h-237z" />
<glyph unicode="&#xe009;" d="M1024 1664v-256q-73 0 -148 -14l-49 251q74 15 151 18h1h1h1h1h1h1h1h1q4 0 7 1h1h1h1h1h1h1h1h1h1h1h1h2h2h1h1h1h1h1h1h1h1h1h1h1h1h1h1h1h1zM1402 1592l-95 -238q-71 28 -142 41l46 252q58 -11 128 -32l1 -1h1h1l1 -1h1h1l1 -1h1h1l1 -1h1h1l1 -1h1h1l15 -6h1h1l1 -1 h1h1q0 -1 1 -1h1h1q0 -1 1 -1h1h1q0 -1 1 -1h1l1 -1q12 -3 19 -7zM631 1586l98 -236q-68 -29 -130 -71l-143 213q58 39 112 65q1 0 1 1h1q1 0 1 1h1h1v1h1h1v1h1h1v1h1h1v1h1h1v1h1h1v1h1h1v1h1h1q0 1 1 1h1l1 1zM1738 1374l-179 -183q-56 54 -116 93l140 214q28 -19 52 -37 h1h1v-1h1q0 -1 1 -1l1 -1h1v-1h1v-1h1v-1h1h1v-1q40 -30 88 -76h1l1 -1l1 -1l1 -1zM298 1363l182 -181q-52 -52 -95 -115l-212 142q1 1 1 2t1 2l1 1q0 1 1 1v1l1 1v1h1v1l1 1v1h1v1q1 0 1 1l1 1v1h1v1q0 1 1 1v1h1v1q1 0 1 1t1 1v1h1v1v1h1v1h1v1h1v1q0 1 1 1v1h1v1v1h1v1h1 v1l1 1v1h1v1h1v1h1v1v1h1v1h1v1l1 1v1q32 42 74 87q0 1 1 2h1zM1965 1044l-235 -101q-29 68 -72 130l212 145q33 -49 63 -107q1 0 1 -1v-1l1 -1l2 -4v-1h1v-1v-1h1v-1v-1h1v-1v-1h1v-1l1 -1v-1q0 -1 1 -1v-1v-1h1v-1l1 -1v-1v-1h1q2 -5 9 -19.5t10 -23.5zM1018 785l90 -20 q46 -10 81.5 -21t74.5 -31t64.5 -46t42 -66t16.5 -90q0 -61 -23.5 -110t-60.5 -79.5t-86.5 -51t-97.5 -28.5t-97 -8q-117 0 -219.5 45t-156.5 139l135 93q88 -129 267 -129q73 0 119 30t46 84q0 48 -36 68.5t-129 41.5l-110 25q-39 8 -68 17.5t-64.5 28.5t-58.5 43 t-38.5 62.5t-15.5 86.5q0 117 90 192t249 75q218 0 346 -174l-132 -98q-79 128 -224 128q-18 0 -41 -4t-52 -14t-48 -32.5t-19 -54.5q0 -24 10.5 -41t35 -28.5t46.5 -17.5t64 -15zM77 1029l236 -97q-30 -75 -42 -142l-252 49q16 78 44 156l1 1v1v1l1 1v1v1h1v1v1l1 1v1v1h1 v1v1v1h1v1v1q1 3 3.5 9t4.5 9zM2048 652l-256 -3q-2 79 -16 148l251 52q8 -44 15 -96v-1v-1v-1v-1v-1v-1q1 0 1 -1v-1v-1v-5v-1v-1h1v-1v-1v-1v-1v-1v-1v-1v-1v-1v-1v-1q0 -1 1 -1v-1v-1v-1v-1v-1v-1v-1v-1v-1v-1v-1v-1q0 -1 1 -1v-1v-1v-1v-1v-1v-4v-1v-1v-1v-1v-1v-1v-1h1 v-1v-1v-1v-1v-1v-1v-5v-1v-1v-1v-1v-1v-1v-1v-1v-1v-1v-1v-1l1 -1v-1v-2v-1v-1v-1v-1v-1v-1v-1v-1v-1v-1v-1v-1v-1v-1v-1v-2zM0 636l256 1q0 -76 15 -148l-251 -50q-8 39 -11 65v1v1v1l-1 1v1v1v1v1v1v2q-1 2 -1 3v1v1v1v1v1q0 1 -1 1v1v1v1v1v1v1v1v1q0 1 -1 2v1v1v1v1v1v1 v1v1v1q-1 0 -1 1v1v1v1v7l-1 1v1v1v1v1v1v1v1q0 1 -0.5 4.5t-0.5 5.5v1v1v1v1v1v1v1q0 1 -0.5 5t-0.5 6v1v1v1v1v1v13h-1v1v1v1v15v2v8zM1975 259l-238 95q27 68 42 142l251 -47q-9 -48 -23 -97q0 -1 -1 -2v-1v-1v-1h-1v-1v-1v-1h-1v-1v-1v-1q0 -1 -1 -1v-1v-1q0 -1 -1 -1 v-1v-1v-1h-1v-1v-1v-1q-1 0 -1 -1q0 -2 -2 -6v-1q-10 -29 -23 -64zM80 243l236 100q27 -66 70 -131l-212 -143q-50 74 -88 160v1h-1v1v1h-1v1v1q-1 0 -1 1v1v1h-1v1q0 1 -1 1v1v1q-1 0 -1 1v1zM1755 -77l-182 179q55 58 93 116l214 -141q-3 -5 -35 -50q-1 0 -1 -1 q-1 0 -1 -1l-1 -1q0 -1 -1 -1v-1h-1v-1h-1v-1v-1h-1v-1h-1v-1q-1 0 -1 -1l-1 -1v-1h-1v-1h-1v-1l-1 -1v-1h-1v-1h-1v-1l-1 -1v-1h-1v-1h-1v-1h-1v-1h-1v-1q0 -1 -1 -1v-1h-1v-1h-1v-1q-1 0 -1 -1l-1 -1v-1h-1v-1h-1v-1h-1v-1q0 -1 -1 -1q0 -1 -1 -1v-1h-1v-1h-1v-1l-1 -1 l-1 -1q0 -1 -1 -1v-1h-1v-1h-1v-1h-1v-1l-1 -1q0 -1 -1 -1q-16 -19 -50 -55zM304 -88l180 182q59 -57 116 -94l-142 -213q-57 37 -101 76l-1 1q-1 0 -1 1h-1v1h-1v1h-1v1h-1v1h-1q0 1 -1 1l-1 1h-1v1h-1v1h-1v1h-1q0 1 -1 1v1h-1l-1 1l-1 1q-1 0 -1 1q-1 0 -1 1h-1v1h-1v1 h-1v1h-1v1h-1q0 1 -1 1l-1 1l-1 1l-1 1l-1 1q-1 0 -1 1q-8 7 -23 22zM1425 -303l-101 236q68 28 131 71l143 -212q-33 -23 -60 -38h-1v-1h-1h-1v-1h-1h-1v-1h-1l-1 -1h-1q0 -1 -1 -1t-1 -1h-1l-1 -1h-1q0 -1 -1 -1h-1q0 -1 -1 -1t-1 -1h-1q-1 0 -1 -1h-1q-41 -23 -93 -46z M639 -309l96 237q75 -30 142 -42l-48 -251q-30 5 -56 12h-1h-1q0 1 -1 1h-1h-1h-1v1h-1h-1h-1h-1v1h-1h-1h-1l-1 1h-1h-1h-1l-1 1h-1h-1q-1 0 -1 1h-1h-1h-1l-1 1h-1l-9 3h-1h-1h-1q-1 0 -1 1h-1h-1q-1 0 -1 1h-1h-1h-1v1h-1h-1h-1l-1 1h-1h-1q-1 0 -1 1h-1h-1q-1 0 -1 1h-1 h-1h-1q0 1 -1 1h-1h-1q0 1 -1 1h-1q-48 16 -71 26zM1032 -384l-2 256q68 0 148 15l51 -250q-94 -19 -197 -21z" />
<glyph unicode="&#xe010;" d="M2019 451l-240 45q-15 -74 -42 -142l227 -91q-38 -96 -93 -180l-205 135q-38 -58 -93 -116l175 -171q-73 -74 -155 -130l-138 203q-63 -43 -131 -71l96 -226q-97 -41 -193 -60l-49 240q-80 -15 -148 -15l2 -245q-2 0 -4 -0.5t-4 -0.5q-95 0 -193 19l46 241 q-67 12 -142 42l-92 -227q-98 40 -179 94l136 205q-57 37 -116 94l-172 -175q-75 75 -130 156l204 137q-43 65 -70 131l-227 -96q-40 95 -59 194l241 48q-15 72 -15 148l-246 -1v4q0 100 20 197l241 -47q12 67 42 142l-227 93q39 94 95 179l204 -137q43 63 95 115l-174 173 q68 69 156 129l137 -205q62 42 130 71l-94 226q88 37 194 59l47 -241q75 14 148 14v246q87 0 185 -18l-44 -241q71 -13 142 -41l91 228q96 -38 179 -93l-134 -205q60 -39 116 -93l171 175q76 -73 131 -154l-203 -139q43 -62 72 -130l225 97q42 -95 61 -193l-240 -50 q14 -69 16 -148l245 3q0 -2 0.5 -6t0.5 -6q0 -92 -19 -189zM1022 234q49 0 97 8t97.5 28.5t86.5 51t60.5 79.5t23.5 110q0 50 -16.5 90t-42 66t-64.5 46t-74.5 31t-81.5 21l-90 20q-42 9 -64 15t-46.5 17.5t-35 28.5t-10.5 41q0 32 19 54.5t48 32.5t52 14t41 4 q145 0 224 -128l132 98q-128 174 -346 174q-159 0 -249 -75t-90 -192q0 -48 15.5 -86.5t38.5 -62.5t58.5 -43t64.5 -28.5t68 -17.5l110 -25q93 -21 129 -41.5t36 -68.5q0 -54 -46 -84t-119 -30q-179 0 -267 129l-135 -93q54 -94 156.5 -139t219.5 -45z" />
<glyph unicode="&#xe011;" d="M1024 1664v-256q-73 0 -148 -14l-49 251q74 15 151 18h1h1h1h1h1h1h1h1q4 0 7 1h1h1h1h1h1h1h1h1h1h1h1h1h1h2h1h1h1h1h1h1h1h1h1h1h1h1h1h1h1h1zM1402 1592l-95 -238q-71 28 -142 41l46 252q58 -11 128 -32l1 -1h1h1l1 -1h1h1l1 -1h1h1l1 -1h1h1l1 -1h1h1l15 -6h1h1 l1 -1h1h1q0 -1 1 -1h1h1q0 -1 1 -1h1h1q0 -1 1 -1h1l1 -1q12 -3 19 -7zM631 1586l98 -236q-68 -29 -130 -71l-143 213q58 39 112 65q1 0 1 1h1q1 0 1 1h1h1v1h1h1v1h1h1v1h1h1v1h1h1v1h1h1v1h1h1v1h1h1q0 1 1 1h1l1 1q7 3 20.5 9t20.5 9zM1738 1374l-179 -183 q-56 54 -116 93l140 214q28 -19 52 -37h1h1v-1h1q0 -1 1 -1l1 -1h1v-1h1v-1h1v-1h1h1v-1q40 -30 88 -76h1l1 -1l1 -1l1 -1zM298 1363l182 -181q-52 -52 -95 -115l-212 142q1 1 1 2t1 2l1 1q0 1 1 1v1l1 1v1h1v1l1 1v1h1v1q1 0 1 1l1 1v1h1v1l1 1v1h1v1q1 0 1 1t1 1v1h1v1v1 h1v1h1v1h1v1q0 1 1 1v1h1v1v1h1v1h1v1l1 1v1h1v1h1v1h1v1v1h1v1h1v1l1 1v1q32 42 74 87q0 1 1 2h1zM1965 1044l-235 -101q-29 68 -72 130l212 145q33 -49 63 -107q1 0 1 -1v-1l1 -1l2 -4v-1h1v-1v-1h1v-1v-1h1v-1v-1h1v-1l1 -1v-1q0 -1 1 -1v-1v-1h1v-1l1 -1v-1v-1h1 q2 -5 9 -19.5t10 -23.5zM1431 678q0 -205 -105.5 -313.5t-296.5 -108.5h-325v858h334q79 0 147.5 -25.5t124.5 -76.5t88.5 -137t32.5 -197zM77 1029l236 -97q-30 -75 -42 -142l-252 49q16 78 44 156l1 1v1v1l1 1v1v1h1v1v1l1 1v1v1h1v1v1v1h1v1v1q1 3 3.5 9t4.5 9zM864 401 h100q77 0 126 9.5t91 38t61 84.5t19 145q0 292 -264 292h-133v-569zM2048 652l-256 -3q-2 79 -16 148l251 52q8 -44 15 -96v-1v-1v-1v-1v-1v-1q1 0 1 -1v-1v-1v-5v-1v-1h1v-1v-1v-1v-1v-1v-1v-1v-1v-1v-1v-1q0 -1 1 -1v-1v-1v-1v-1v-1v-1v-1v-1v-1v-1v-1v-1q0 -1 1 -1v-1v-1 v-1v-1v-1v-4v-1v-1v-1v-1v-1v-1v-1h1v-1v-1v-1v-1v-1v-1v-5v-1v-1v-1v-1v-1v-1v-1v-1v-1v-1v-1v-1l1 -1v-1v-1v-1v-1v-1v-1v-1v-1v-1v-1v-1v-1v-1v-1v-1v-1v-1v-1v-2zM0 636l256 1q0 -76 15 -148l-251 -50q-8 39 -11 65v1v1v1l-1 1v1v1v1v1v1v2q-1 2 -1 3v1v1v1v1v1 q0 1 -1 1v1v1v1v1v1v1v1v1q0 1 -1 2v1v1v1v1v1v1v1v1v1l-1 1v1v1v1v7l-1 1v1v1v1v1v1v1v1q0 1 -0.5 4.5t-0.5 5.5v1v1v1v1v1v1v1q0 1 -0.5 5t-0.5 6v1v1v1v1v1v13h-1v1v1v1v15v2v8zM1975 259l-238 95q27 68 42 142l251 -47q-9 -48 -23 -97q0 -1 -1 -2v-1v-1v-1h-1v-1v-1v-1 h-1v-1v-1v-1q0 -1 -1 -1v-1v-1q0 -1 -1 -1v-1v-1v-1h-1v-1v-1v-1q-1 0 -1 -1q0 -2 -2 -6v-1q-10 -29 -23 -64zM80 243l236 100q27 -66 70 -131l-212 -143q-50 74 -88 160v1h-1v1v1h-1v1v1q-1 0 -1 1v1v1h-1v1v1h-1v1v1q-1 0 -1 1v1zM1755 -77l-182 179q55 58 93 116 l214 -141q-3 -5 -35 -50q-1 0 -2 -1v-1l-1 -1q0 -1 -1 -1v-1h-1v-1h-1v-1v-1h-1v-1h-1v-1q-1 0 -1 -1l-1 -1v-1h-1v-1h-1v-1l-1 -1v-1h-1v-1h-1v-1l-1 -1v-1h-1v-1h-1v-1h-1v-1h-1v-1q0 -1 -1 -1v-1h-1v-1h-1v-1q-1 0 -1 -1l-1 -1v-1h-1v-1h-1v-1h-1v-1q0 -1 -1 -1 q0 -1 -1 -1v-1h-1v-1h-1v-1l-1 -1l-1 -1q0 -1 -1 -1v-1h-1v-1h-1v-1h-1v-1l-1 -1q0 -1 -1 -1q-16 -19 -50 -55zM304 -88l180 182q59 -57 116 -94l-142 -213q-57 37 -101 76l-1 1q-1 0 -1 1h-1v1h-1v1h-1v1h-1v1h-1q0 1 -1 1l-1 1h-1v1h-1v1h-1v1h-1q0 1 -1 1v1h-1l-1 1l-1 1 q-1 0 -1 1q-1 0 -1 1h-1v1h-1v1h-1v1h-1v1h-1q0 1 -1 1l-1 1l-1 1l-1 1l-1 1q-1 0 -1 1q-8 7 -23 22zM1425 -303l-101 236q68 28 131 71l143 -212q-33 -23 -60 -38h-1v-1h-1h-1v-1h-1h-1v-1h-1l-1 -1h-1q0 -1 -1 -1t-1 -1h-1h-1v-1h-1q0 -1 -1 -1h-1q0 -1 -1 -1t-1 -1h-1 q-1 0 -1 -1h-1q-41 -23 -93 -46zM639 -309l96 237q75 -30 142 -42l-48 -251q-30 5 -56 12h-1h-1q0 1 -1 1h-1h-1h-1v1h-1h-1h-1h-1v1h-1h-1h-1l-1 1h-1h-1h-1l-1 1h-1h-1q-1 0 -1 1h-1h-1h-1l-1 1h-1l-9 3h-1h-1h-1l-1 1h-1h-1q-1 0 -1 1h-1h-1h-1v1h-1h-1h-1l-1 1h-1h-1 q-1 0 -1 1h-1h-1q-1 0 -1 1h-1h-1h-1q0 1 -1 1h-1h-1q0 1 -1 1h-1q-48 16 -71 26zM1032 -384l-2 256q68 0 148 15l51 -250q-94 -19 -197 -21z" />
<glyph unicode="&#xe012;" d="M2019 451l-240 45q-15 -74 -42 -142l227 -91q-38 -96 -93 -180l-205 135q-38 -58 -93 -116l175 -171q-73 -74 -155 -130l-138 203q-63 -43 -131 -71l96 -226q-97 -41 -193 -60l-49 240q-80 -15 -148 -15l2 -245q-2 0 -4 -0.5t-4 -0.5q-95 0 -193 19l46 241 q-67 12 -142 42l-92 -227q-98 40 -179 94l136 205q-57 37 -116 94l-172 -175q-75 75 -130 156l204 137q-43 65 -70 131l-227 -96q-40 95 -59 194l241 48q-15 72 -15 148l-246 -1v4q0 100 20 197l241 -47q12 67 42 142l-227 93q39 94 95 179l204 -137q43 63 95 115l-174 173 q68 69 156 129l137 -205q62 42 130 71l-94 226q88 37 194 59l47 -241q75 14 148 14v246q87 0 185 -18l-44 -241q71 -13 142 -41l91 228q96 -38 179 -93l-134 -205q60 -39 116 -93l171 175q76 -73 131 -154l-203 -139q43 -62 72 -130l225 97q42 -95 61 -193l-240 -50 q14 -69 16 -148l245 3q0 -2 0.5 -6t0.5 -6q0 -92 -19 -189zM704 256h325q191 0 296.5 108.5t105.5 313.5q0 111 -32.5 197t-88.5 137t-124.5 76.5t-147.5 25.5h-334v-858zM864 970h133q264 0 264 -292q0 -89 -19 -145t-61 -84.5t-91 -38t-126 -9.5h-100v569z" />
<glyph unicode="&#xe013;" d="M1024 1664q209 0 398.5 -81t326.5 -218t218 -326.5t81 -398.5t-81 -398.5t-218 -326.5t-326.5 -218t-398.5 -81t-398.5 81t-326.5 218t-218 326.5t-81 398.5t81 398.5t218 326.5t326.5 218t398.5 81zM1024 -128q156 0 298 61t245 164t164 245t61 298t-61 298t-164 245 t-245 164t-298 61t-298 -61t-245 -164t-164 -245t-61 -298t61 -298t164 -245t245 -164t298 -61zM1339 842q0 -34 -7.5 -66t-25.5 -65.5t-52.5 -61t-83.5 -43.5l191 -350h-184l-169 319h-145v-319h-159v858h351q127 0 205.5 -75.5t78.5 -196.5zM863 708h124q92 0 140.5 31.5 t48.5 103.5q0 133 -167 133h-146v-268z" />
<glyph unicode="&#xe014;" d="M1024 1664q209 0 398.5 -81t326.5 -218t218 -326.5t81 -398.5t-81 -398.5t-218 -326.5t-326.5 -218t-398.5 -81t-398.5 81t-326.5 218t-218 326.5t-81 398.5t81 398.5t218 326.5t326.5 218t398.5 81zM1361 256l-191 350q49 16 83.5 43.5t52.5 61t25.5 65.5t7.5 66 q0 121 -78.5 196.5t-205.5 75.5h-351v-858h159v319h145l169 -319h184zM863 976h146q167 0 167 -133q0 -72 -48.5 -103.5t-140.5 -31.5h-124v268z" />
<glyph unicode="&#xe015;" d="M1024 1664q209 0 398.5 -81t326.5 -218t218 -326.5t81 -398.5t-81 -398.5t-218 -326.5t-326.5 -218t-398.5 -81t-398.5 81t-326.5 218t-218 326.5t-81 398.5t81 398.5t218 326.5t326.5 218t398.5 81zM1024 -128q156 0 298 61t245 164t164 245t61 298t-61 298t-164 245 t-245 164t-298 61t-298 -61t-245 -164t-164 -245t-61 -298t61 -298t164 -245t245 -164t298 -61zM704 1114h334q79 0 147.5 -25.5t124.5 -76.5t88.5 -137t32.5 -197q0 -205 -105.5 -313.5t-296.5 -108.5h-325v858zM864 401h100q77 0 126 9.5t91 38t61 84.5t19 145 q0 292 -264 292h-133v-569z" />
<glyph unicode="&#xe016;" d="M1024 1664q209 0 398.5 -81t326.5 -218t218 -326.5t81 -398.5t-81 -398.5t-218 -326.5t-326.5 -218t-398.5 -81t-398.5 81t-326.5 218t-218 326.5t-81 398.5t81 398.5t218 326.5t326.5 218t398.5 81zM704 256h325q191 0 296.5 108.5t105.5 313.5q0 111 -32.5 197 t-88.5 137t-124.5 76.5t-147.5 25.5h-334v-858zM864 970h133q264 0 264 -292q0 -89 -19 -145t-61 -84.5t-91 -38t-126 -9.5h-100v569z" />
<glyph unicode="&#xe017;" d="M1024 1664q209 0 398.5 -81t326.5 -218t218 -326.5t81 -398.5t-81 -398.5t-218 -326.5t-326.5 -218t-398.5 -81t-398.5 81t-326.5 218t-218 326.5t-81 398.5t81 398.5t218 326.5t326.5 218t398.5 81zM1024 -128q156 0 298 61t245 164t164 245t61 298t-61 298t-164 245 t-245 164t-298 61t-298 -61t-245 -164t-164 -245t-61 -298t61 -298t164 -245t245 -164t298 -61zM768 1114h568v-143h-409v-214h359v-137h-359v-364h-159v858z" />
<glyph unicode="&#xe018;" d="M1024 1664q209 0 398.5 -81t326.5 -218t218 -326.5t81 -398.5t-81 -398.5t-218 -326.5t-326.5 -218t-398.5 -81t-398.5 81t-326.5 218t-218 326.5t-81 398.5t81 398.5t218 326.5t326.5 218t398.5 81zM1336 1114h-568v-858h159v364h359v137h-359v214h409v143z" />
<glyph unicode="&#xe019;" d="M1024 1664q209 0 398.5 -81t326.5 -218t218 -326.5t81 -398.5t-81 -398.5t-218 -326.5t-326.5 -218t-398.5 -81t-398.5 81t-326.5 218t-218 326.5t-81 398.5t81 398.5t218 326.5t326.5 218t398.5 81zM1024 -128q156 0 298 61t245 164t164 245t61 298t-61 298t-164 245 t-245 164t-298 61t-298 -61t-245 -164t-164 -245t-61 -298t61 -298t164 -245t245 -164t298 -61zM721 702l76 -17q49 -10 85.5 -23.5t73 -37t56 -62.5t19.5 -91q0 -64 -29 -111.5t-76.5 -72.5t-98 -37t-103.5 -12q-99 0 -185 38t-131 116l113 79q74 -108 225 -108 q62 0 100.5 24.5t38.5 70.5q0 41 -30.5 58.5t-108.5 34.5l-93 21q-41 9 -72 20.5t-64.5 33.5t-51.5 59t-18 87q0 99 76 162.5t209 63.5q184 0 292 -147l-111 -83q-67 108 -189 108q-16 0 -35 -3.5t-43.5 -11.5t-40.5 -27t-16 -46t19 -44.5t42.5 -24.5t70.5 -17zM1416 784 q85 0 134.5 -47.5t49.5 -134.5v-346h-121v300q0 55 -25.5 83t-70.5 28q-52 0 -90.5 -35.5t-38.5 -91.5v-284h-122v723h122v-263q66 68 162 68z" />
<glyph unicode="&#xe020;" d="M1024 1664q209 0 398.5 -81t326.5 -218t218 -326.5t81 -398.5t-81 -398.5t-218 -326.5t-326.5 -218t-398.5 -81t-398.5 81t-326.5 218t-218 326.5t-81 398.5t81 398.5t218 326.5t326.5 218t398.5 81zM724 238q53 0 103.5 12t98 37t76.5 72.5t29 111.5q0 52 -19.5 91 t-56 62.5t-73 37t-85.5 23.5l-76 17q-47 10 -70.5 17t-42.5 24.5t-19 44.5t16 46t40.5 27t43.5 11.5t35 3.5q122 0 189 -108l111 83q-108 147 -292 147q-133 0 -209 -63.5t-76 -162.5q0 -50 18 -87t51.5 -59t64.5 -33.5t72 -20.5l93 -21q78 -17 108.5 -34.5t30.5 -58.5 q0 -46 -38.5 -70.5t-100.5 -24.5q-151 0 -225 108l-113 -79q45 -78 131 -116t185 -38zM1600 256v346q0 87 -49.5 134.5t-134.5 47.5q-96 0 -162 -68v263h-122v-723h122v284q0 56 38.5 91.5t90.5 35.5q45 0 70.5 -28t25.5 -83v-300h121z" />
<glyph unicode="&#xe021;" d="M1024 1664q209 0 398.5 -81t326.5 -218t218 -326.5t81 -398.5t-81 -398.5t-218 -326.5t-326.5 -218t-398.5 -81t-398.5 81t-326.5 218t-218 326.5t-81 398.5t81 398.5t218 326.5t326.5 218t398.5 81zM1024 1408q-156 0 -298 -61t-245 -164t-164 -245t-61 -298t61 -298 t164 -245t245 -164t298 -61t298 61t245 164t164 245t61 298t-61 298t-164 245t-245 164t-298 61zM512 979v-723h134v268h122l142 -268h155l-161 295q78 26 110.5 81t32.5 118q0 102 -66.5 165.5t-172.5 63.5h-296zM1152 979v-723h122v53q59 -68 140 -68q90 0 161.5 73 t71.5 201q0 119 -66.5 194t-159.5 75q-29 0 -70.5 -12.5t-75.5 -46.5v254h-123zM646 862h123q140 0 140 -111q0 -114 -158 -114h-105v225zM1398 357q-57 0 -91 43t-34 124q0 64 33 106t87 42q61 0 94.5 -45t33.5 -103q0 -78 -35.5 -122.5t-87.5 -44.5z" />
<glyph unicode="&#xe022;" d="M1024 1664q209 0 398.5 -81t326.5 -218t218 -326.5t81 -398.5t-81 -398.5t-218 -326.5t-326.5 -218t-398.5 -81t-398.5 81t-326.5 218t-218 326.5t-81 398.5t81 398.5t218 326.5t326.5 218t398.5 81zM1065 256l-161 295q78 26 110.5 81t32.5 118q0 102 -66.5 165.5 t-172.5 63.5h-296v-723h134v268h122l142 -268h155zM1414 241q90 0 161.5 73t71.5 201q0 119 -66.5 194t-159.5 75q-29 0 -70.5 -12.5t-75.5 -46.5v254h-123v-723h122v53q59 -68 140 -68zM646 862h123q140 0 140 -111q0 -114 -158 -114h-105v225zM1393 672q61 0 94.5 -45 t33.5 -103q0 -78 -35.5 -122.5t-87.5 -44.5q-57 0 -91 43t-34 124q0 64 33 106t87 42z" />
<glyph unicode="&#xe023;" d="M1024 1664q209 0 398.5 -81t326.5 -218t218 -326.5t81 -398.5t-81 -398.5t-218 -326.5t-326.5 -218t-398.5 -81t-398.5 81t-326.5 218t-218 326.5t-81 398.5t81 398.5t218 326.5t326.5 218t398.5 81zM1024 -128q156 0 298 61t245 164t164 245t61 298t-61 298t-164 245 t-245 164t-298 61t-298 -61t-245 -164t-164 -245t-61 -298t61 -298t164 -245t245 -164t298 -61zM1046 1129q120 0 203.5 -68t83.5 -186q0 -71 -33 -120.5t-103 -98.5q-52 -36 -66.5 -61t-14.5 -84v-34h-142v31q0 131 34 180q16 22 45.5 44t52.5 37t41 42.5t18 63.5 q0 49 -38.5 82t-89.5 33q-67 0 -105 -45t-38 -114l-147 17q5 71 23 113q33 85 106.5 126.5t169.5 41.5zM966 423h161v-167h-161v167z" />
<glyph unicode="&#xe024;" d="M1024 1664q209 0 398.5 -81t326.5 -218t218 -326.5t81 -398.5t-81 -398.5t-218 -326.5t-326.5 -218t-398.5 -81t-398.5 81t-326.5 218t-218 326.5t-81 398.5t81 398.5t218 326.5t326.5 218t398.5 81zM1197 656q70 49 103 98.5t33 120.5q0 118 -83.5 186t-203.5 68 q-96 0 -169.5 -41.5t-106.5 -126.5q-18 -42 -23 -113l147 -17q0 69 38 114t105 45q51 0 89.5 -33t38.5 -82q0 -36 -18 -63.5t-41 -42.5t-52.5 -37t-45.5 -44q-34 -49 -34 -180v-31h142v34q0 59 14.5 84t66.5 61zM1127 423h-161v-167h161v167z" />
<glyph unicode="&#xe030;" d="M1024 1152q212 0 362 -150t150 -362t-150 -362t-362 -150t-362 150t-150 362t150 362t362 150zM1024 512q53 0 90.5 37.5t37.5 90.5t-37.5 90.5t-90.5 37.5t-90.5 -37.5t-37.5 -90.5t37.5 -90.5t90.5 -37.5z" />
<glyph unicode="&#xe031;" d="M1845 373q75 -75 75 -181t-75 -181t-181 -75t-181 75q-57 57 -71 135t18 148l-246 317q-78 -35 -160 -35q-83 0 -159 35l-247 -317q32 -70 18 -148t-71 -135q-75 -75 -181 -75t-181 75t-75 181t75 181q85 85 209 72l268 346q-40 82 -40 169q0 159 112.5 271.5 t271.5 112.5t271.5 -112.5t112.5 -271.5q0 -87 -40 -169l268 -346q124 13 209 -72zM1024 832q53 0 90.5 37.5t37.5 90.5t-37.5 90.5t-90.5 37.5t-90.5 -37.5t-37.5 -90.5t37.5 -90.5t90.5 -37.5z" />
<glyph unicode="&#xe032;" d="M1792 896q106 0 181 -75t75 -181t-75 -181t-181 -75q-70 0 -128 35t-92 93h-186q-8 -22 -16 -37l101 -101q63 18 130 1t116 -66q75 -75 75 -181t-75 -181t-181 -75t-181 75q-49 49 -66 116t1 130l-101 101q-15 -8 -37 -16v-186q58 -34 93 -92t35 -128q0 -106 -75 -181 t-181 -75t-181 75t-75 181q0 70 35 128t93 92v186q-22 8 -37 16l-101 -101q18 -63 1 -130t-66 -116q-75 -75 -181 -75t-181 75t-75 181t75 181q49 49 116 66t130 -1l101 101q-8 15 -16 37h-186q-34 -58 -92 -93t-128 -35q-106 0 -181 75t-75 181t75 181t181 75q70 0 128 -35 t92 -93h186q8 22 16 37l-101 101q-63 -18 -130 -1t-116 66q-75 75 -75 181t75 181t181 75t181 -75q49 -49 66 -116t-1 -130l101 -101q15 8 37 16v186q-58 34 -93 92t-35 128q0 106 75 181t181 75t181 -75t75 -181q0 -70 -35 -128t-93 -92v-186q22 -8 37 -16l101 101 q-18 63 -1 130t66 116q75 75 181 75t181 -75t75 -181t-75 -181q-49 -49 -116 -66t-130 1l-101 -101q8 -15 16 -37h186q34 58 92 93t128 35zM1024 512q53 0 90.5 37.5t37.5 90.5t-37.5 90.5t-90.5 37.5t-90.5 -37.5t-37.5 -90.5t37.5 -90.5t90.5 -37.5z" />
<glyph unicode="&#xe033;" d="M1280 1024h323q-57 111 -136 176.5t-174 77.5q-83 10 -157.5 -22t-108.5 -93q-13 -23 -20.5 -40.5t-13.5 -63t5.5 -90.5t50 -115.5t105.5 -145.5q76 -86 129 -171t79.5 -156.5t35 -141t3 -124t-22.5 -107t-37 -89.5t-45 -71q-69 -93 -172 -142.5t-225 -49.5 q-53 0 -116 11q-190 37 -333.5 168.5t-195.5 315.5q-112 40 -183 139t-71 222q0 159 112.5 271.5t271.5 112.5t271.5 -112.5t112.5 -271.5q0 -120 -67.5 -217t-175.5 -140q45 -95 130 -156.5t176 -79.5q26 -5 53.5 -6t66 4t75.5 26t64 57q160 215 -127 538q-86 96 -139 191 t-72 172.5t-16 152t21 130t48 107.5q73 128 216.5 194.5t303.5 46.5q45 -6 90.5 -19t114 -49t127.5 -88t120.5 -143.5t104.5 -208.5h166l-256 -512zM384 640q-53 0 -90.5 -37.5t-37.5 -90.5t37.5 -90.5t90.5 -37.5t90.5 37.5t37.5 90.5t-37.5 90.5t-90.5 37.5z" />
<glyph unicode="&#xe034;" d="M1152 1024l237 142q-1 0 -1 0.5t-1 0.5q-163 113 -363 113q-130 0 -248.5 -51t-204 -136.5t-136.5 -204t-51 -248.5t51 -248.5t136.5 -204t204 -136.5t248.5 -51q0 159 112.5 271.5t271.5 112.5t271.5 -112.5t112.5 -271.5t-112.5 -271.5t-271.5 -112.5q-85 0 -161 35.5 t-130 97.5q-52 -5 -93 -5q-182 0 -348 71t-286 191t-191 286t-71 348t71 348t191 286t286 191t348 71q279 0 509 -158q41 -29 89 -72l170 102v-640zM1408 128q-53 0 -90.5 -37.5t-37.5 -90.5t37.5 -90.5t90.5 -37.5t90.5 37.5t37.5 90.5t-37.5 90.5t-90.5 37.5z" />
<glyph unicode="&#xe085;" d="M1600 1664q185 0 316.5 -131.5t131.5 -316.5t-131.5 -316.5t-316.5 -131.5t-316.5 131.5t-131.5 316.5t131.5 316.5t316.5 131.5zM1920 1152v128h-256v256h-128v-256h-256v-128h256v-256h128v256h256z" />
<glyph unicode="&#xe086;" d="M1600 1664q185 0 316.5 -131.5t131.5 -316.5t-131.5 -316.5t-316.5 -131.5t-316.5 131.5t-131.5 316.5t131.5 316.5t316.5 131.5zM1920 1152v128h-640v-128h640z" />
<glyph unicode="&#xe087;" d="M1600 1664q185 0 316.5 -131.5t131.5 -316.5t-131.5 -316.5t-316.5 -131.5t-316.5 131.5t-131.5 316.5t131.5 316.5t316.5 131.5zM1872 1397l-91 91l-373 -336v-128h128z" />
<glyph unicode="&#xe088;" d="M1600 1664q185 0 316.5 -131.5t131.5 -316.5t-131.5 -316.5t-316.5 -131.5t-316.5 131.5t-131.5 316.5t131.5 316.5t316.5 131.5zM1664 1536h-128v-384h128v384zM1664 1024h-128v-128h128v128z" />
<glyph unicode="&#xe089;" d="M1600 1280l225 161q-95 95 -225 95q-132 0 -226 -94t-94 -226t94 -226t226 -94q95 0 175 53l134 -57q-130 -124 -309 -124q-185 0 -316.5 131.5t-131.5 316.5t131.5 316.5t316.5 131.5q97 0 182.5 -39t148.5 -108l117 83v-512z" />
<glyph unicode="&#xe090;" d="M1600 512q185 0 316.5 -131.5t131.5 -316.5t-131.5 -316.5t-316.5 -131.5t-316.5 131.5t-131.5 316.5t131.5 316.5t316.5 131.5zM1920 0v128h-256v256h-128v-256h-256v-128h256v-256h128v256h256z" />
<glyph unicode="&#xe091;" d="M1600 512q185 0 316.5 -131.5t131.5 -316.5t-131.5 -316.5t-316.5 -131.5t-316.5 131.5t-131.5 316.5t131.5 316.5t316.5 131.5zM1920 0v128h-640v-128h640z" />
<glyph unicode="&#xe092;" d="M1600 512q185 0 316.5 -131.5t131.5 -316.5t-131.5 -316.5t-316.5 -131.5t-316.5 131.5t-131.5 316.5t131.5 316.5t316.5 131.5zM1872 245l-91 91l-373 -336v-128h128z" />
<glyph unicode="&#xe093;" d="M1600 512q185 0 316.5 -131.5t131.5 -316.5t-131.5 -316.5t-316.5 -131.5t-316.5 131.5t-131.5 316.5t131.5 316.5t316.5 131.5zM1664 384h-128v-384h128v384zM1664 -128h-128v-128h128v128z" />
<glyph unicode="&#xe094;" d="M1600 128l225 161q-95 95 -225 95q-132 0 -226 -94t-94 -226t94 -226t226 -94q95 0 175 53l134 -57q-130 -124 -309 -124q-185 0 -316.5 131.5t-131.5 316.5t131.5 316.5t316.5 131.5q97 0 182.5 -39t148.5 -108l117 83v-512z" />
<glyph unicode="&#xe095;" d="M448 1664q185 0 316.5 -131.5t131.5 -316.5t-131.5 -316.5t-316.5 -131.5t-316.5 131.5t-131.5 316.5t131.5 316.5t316.5 131.5zM768 1152v128h-256v256h-128v-256h-256v-128h256v-256h128v256h256z" />
<glyph unicode="&#xe096;" d="M448 1664q185 0 316.5 -131.5t131.5 -316.5t-131.5 -316.5t-316.5 -131.5t-316.5 131.5t-131.5 316.5t131.5 316.5t316.5 131.5zM768 1152v128h-640v-128h640z" />
<glyph unicode="&#xe097;" d="M448 1664q185 0 316.5 -131.5t131.5 -316.5t-131.5 -316.5t-316.5 -131.5t-316.5 131.5t-131.5 316.5t131.5 316.5t316.5 131.5zM720 1397l-91 91l-373 -336v-128h128z" />
<glyph unicode="&#xe098;" d="M448 1664q185 0 316.5 -131.5t131.5 -316.5t-131.5 -316.5t-316.5 -131.5t-316.5 131.5t-131.5 316.5t131.5 316.5t316.5 131.5zM512 1536h-128v-384h128v384zM512 1024h-128v-128h128v128z" />
<glyph unicode="&#xe099;" d="M715 1391l57 134q124 -130 124 -309q0 -185 -131.5 -316.5t-316.5 -131.5t-316.5 131.5t-131.5 316.5q0 97 39 182.5t108 148.5l-83 117h512l-192 -448l-161 225q-95 -95 -95 -225q0 -132 94 -226t226 -94t226 94t94 226q0 95 -53 175z" />
<glyph unicode="&#xe100;" d="M1790 673q141 50 239 160q19 -98 19 -193q0 -209 -81 -398.5t-218 -326.5t-326.5 -218t-398.5 -81t-398.5 81t-326.5 218t-218 326.5t-81 398.5t81 398.5t218 326.5t326.5 218t398.5 81q95 0 193 -19q-110 -98 -160 -239q-22 2 -33 2q-156 0 -298 -61t-245 -164 t-164 -245t-61 -298t61 -298t164 -245t245 -164t298 -61t298 61t245 164t164 245t61 298q0 11 -2 33z" />
<glyph unicode="&#xe101;" d="M1790 673q141 50 239 160q19 -98 19 -193q0 -209 -81 -398.5t-218 -326.5t-326.5 -218t-398.5 -81t-398.5 81t-326.5 218t-218 326.5t-81 398.5t81 398.5t218 326.5t326.5 218t398.5 81q95 0 193 -19q-110 -98 -160 -239q-22 2 -33 2q-156 0 -298 -61t-245 -164 t-164 -245t-61 -298t61 -298t164 -245t245 -164t298 -61t298 61t245 164t164 245t61 298q0 11 -2 33zM795 728l76 -16q50 -11 86 -24.5t73 -37t56.5 -62.5t19.5 -91q0 -64 -29.5 -111.5t-77 -72.5t-98 -37t-103.5 -12q-99 0 -185 38t-131 117l114 78q71 -108 224 -108 q61 0 100 25t39 70q0 41 -30.5 58.5t-108.5 34.5l-92 21q-33 7 -58 15t-54.5 23.5t-49 36t-32.5 53t-13 73.5q0 99 76 162t210 63q184 0 292 -146l-112 -83q-68 107 -189 107q-15 0 -34.5 -3.5t-44 -11.5t-40.5 -27t-16 -46q0 -38 31 -55t101 -31zM1362 399q14 -15 46 -15 q28 0 51 6v-104q-64 -8 -88 -8q-80 0 -112 29.5t-32 94.5v305h-75v88h57q62 -59 141 -97v-245q0 -41 12 -54z" />
<glyph unicode="&#xe102;" d="M1600 640q126 0 237.5 51.5t191.5 141.5q19 -98 19 -193q0 -209 -81 -398.5t-218 -326.5t-326.5 -218t-398.5 -81t-398.5 81t-326.5 218t-218 326.5t-81 398.5t81 398.5t218 326.5t326.5 218t398.5 81q95 0 193 -19q-90 -80 -141.5 -191.5t-51.5 -237.5q0 -47 10 -102 h-266v-858h161v292h164q208 0 280 139q110 -47 227 -47zM1051 977h26q55 -121 155 -204q-31 -94 -162 -94h-141v298h122z" />
<glyph unicode="&#xe103;" d="M1790 673q141 50 239 160q19 -98 19 -193q0 -209 -81 -398.5t-218 -326.5t-326.5 -218t-398.5 -81t-398.5 81t-326.5 218t-218 326.5t-81 398.5t81 398.5t218 326.5t326.5 218t398.5 81q95 0 193 -19q-110 -98 -160 -239q-22 2 -33 2q-156 0 -298 -61t-245 -164 t-164 -245t-61 -298t61 -298t164 -245t245 -164t298 -61t298 61t245 164t164 245t61 298q0 11 -2 33zM1018 785l90 -20q46 -10 81.5 -21t74.5 -31t64.5 -46t42 -66t16.5 -90q0 -61 -23.5 -110t-60.5 -79.5t-86.5 -51t-97.5 -28.5t-97 -8q-117 0 -219.5 45t-156.5 139l135 93 q88 -129 267 -129q73 0 119 30t46 84q0 48 -36 68.5t-129 41.5l-110 25q-39 8 -68 17.5t-64.5 28.5t-58.5 43t-38.5 62.5t-15.5 86.5q0 117 90 192t247 75q11 -79 42 -149q-27 5 -50 5q-18 0 -41 -4t-52 -14t-48 -32.5t-19 -54.5q0 -24 10.5 -41t35 -28.5t46.5 -17.5t64 -15 z" />
<glyph unicode="&#xe104;" d="M1790 673q141 50 239 160q19 -98 19 -193q0 -209 -81 -398.5t-218 -326.5t-326.5 -218t-398.5 -81t-398.5 81t-326.5 218t-218 326.5t-81 398.5t81 398.5t218 326.5t326.5 218t398.5 81q95 0 193 -19q-110 -98 -160 -239q-22 2 -33 2q-156 0 -298 -61t-245 -164 t-164 -245t-61 -298t61 -298t164 -245t245 -164t298 -61t298 61t245 164t164 245t61 298q0 11 -2 33zM931 1114h103q36 -203 194 -337l178 -521h-171l-50 168h-322l-50 -168h-173zM1142 565l-118 395l-119 -395h237z" />
<glyph unicode="&#xe105;" d="M1024 1664v-256q-73 0 -148 -14l-49 251q74 15 151 18h1h1h1h1h1h1h1h1q4 0 7 1h1h1h1h1h1h1h1h1h1h1h1h2h2h1h1h1h1h1h1h1h1h1h1h1h1h1h1h1h1zM631 1586l98 -236q-68 -29 -130 -71l-143 213q58 39 112 65q1 0 1 1h1q1 0 1 1h1h1v1h1h1v1h1h1v1h1h1v1h1h1v1h1h1v1h1h1v1 h1h1q0 1 1 1h1l1 1zM298 1363l182 -181q-52 -52 -95 -115l-212 142q1 1 1 2t1 2l1 1q0 1 1 1v1l1 1v1h1v1l1 1v1h1v1q1 0 1 1l1 1v1h1v1q0 1 1 1v1h1v1q1 0 1 1t1 1v1h1v1v1h1v1h1v1h1v1q0 1 1 1v1h1v1v1h1v1h1v1l1 1v1h1v1h1v1h1v1v1h1v1h1v1l1 1v1q32 42 74 87q0 1 1 2h1z M1018 785l90 -20q46 -10 81.5 -21t74.5 -31t64.5 -46t42 -66t16.5 -90q0 -61 -23.5 -110t-60.5 -79.5t-86.5 -51t-97.5 -28.5t-97 -8q-117 0 -219.5 45t-156.5 139l135 93q88 -129 267 -129q73 0 119 30t46 84q0 48 -36 68.5t-129 41.5l-110 25q-39 8 -68 17.5t-64.5 28.5 t-58.5 43t-38.5 62.5t-15.5 86.5q0 117 90 192t247 75q11 -79 42 -149q-27 5 -50 5q-18 0 -41 -4t-52 -14t-48 -32.5t-19 -54.5q0 -24 10.5 -41t35 -28.5t46.5 -17.5t64 -15zM77 1029l236 -97q-30 -75 -42 -142l-252 49q16 78 44 156l1 1v1v1l1 1v1v1h1v1v1l1 1v1v1h1v1v1v1 h1v1v1q1 3 3.5 9t4.5 9zM0 636l256 1q0 -76 15 -148l-251 -50q-8 39 -11 65v1v1v1l-1 1v1v1v1v1v1v2q-1 2 -1 3v1v1v1v1v1q0 1 -1 1v1v1v1v1v1v1v1v1q0 1 -1 2v1v1v1v1v1v1v1v1v1q-1 0 -1 1v1v1v1v7l-1 1v1v1v1v1v1v1v1q0 1 -0.5 4.5t-0.5 5.5v1v1v1v1v1v1v1q0 1 -0.5 5 t-0.5 6v1v1v1v1v1v13h-1v1v1v1v15v2v8zM1975 259l-238 95q27 68 42 142l251 -47q-9 -48 -23 -97q0 -1 -1 -2v-1v-1v-1h-1v-1v-1v-1h-1v-1v-1v-1q0 -1 -1 -1v-1v-1q0 -1 -1 -1v-1v-1v-1h-1v-1v-1v-1q-1 0 -1 -1q0 -2 -2 -6v-1q-10 -29 -23 -64zM80 243l236 100 q27 -66 70 -131l-212 -143q-50 74 -88 160v1h-1v1v1h-1v1v1q-1 0 -1 1v1v1h-1v1q0 1 -1 1v1v1q-1 0 -1 1v1zM1755 -77l-182 179q55 58 93 116l214 -141q-3 -5 -35 -50q-1 0 -1 -1q-1 0 -1 -1l-1 -1q0 -1 -1 -1v-1h-1v-1h-1v-1v-1h-1v-1h-1v-1q-1 0 -1 -1l-1 -1v-1h-1v-1h-1 v-1l-1 -1v-1h-1v-1h-1v-1l-1 -1v-1h-1v-1h-1v-1h-1v-1h-1v-1q0 -1 -1 -1v-1h-1v-1h-1v-1q-1 0 -1 -1l-1 -1v-1h-1v-1h-1v-1h-1v-1q0 -1 -1 -1q0 -1 -1 -1v-1h-1v-1h-1v-1l-1 -1l-1 -1q0 -1 -1 -1v-1h-1v-1h-1v-1h-1v-1l-1 -1q0 -1 -1 -1q-16 -19 -50 -55zM304 -88l180 182 q59 -57 116 -94l-142 -213q-57 37 -101 76l-1 1q-1 0 -1 1h-1v1h-1v1h-1v1h-1v1h-1q0 1 -1 1l-1 1h-1v1h-1v1h-1v1h-1q0 1 -1 1v1h-1l-1 1l-1 1q-1 0 -1 1q-1 0 -1 1h-1v1h-1v1h-1v1h-1v1h-1q0 1 -1 1l-1 1l-1 1l-1 1l-1 1q-1 0 -1 1q-8 7 -23 22zM1425 -303l-101 236 q68 28 131 71l143 -212q-33 -23 -60 -38h-1v-1h-1h-1v-1h-1h-1v-1h-1l-1 -1h-1q0 -1 -1 -1t-1 -1h-1l-1 -1h-1q0 -1 -1 -1h-1q0 -1 -1 -1t-1 -1h-1q-1 0 -1 -1h-1q-41 -23 -93 -46zM639 -309l96 237q75 -30 142 -42l-48 -251q-30 5 -56 12h-1h-1q0 1 -1 1h-1h-1h-1v1h-1h-1 h-1h-1v1h-1h-1h-1l-1 1h-1h-1h-1l-1 1h-1h-1q-1 0 -1 1h-1h-1h-1l-1 1h-1l-9 3h-1h-1h-1q-1 0 -1 1h-1h-1q-1 0 -1 1h-1h-1h-1v1h-1h-1h-1l-1 1h-1h-1q-1 0 -1 1h-1h-1q-1 0 -1 1h-1h-1h-1q0 1 -1 1h-1h-1q0 1 -1 1h-1q-48 16 -71 26zM1032 -384l-2 256q68 0 148 15l51 -250 q-94 -19 -197 -21z" />
<glyph unicode="&#xe106;" d="M1024 1664v-256q-73 0 -148 -14l-49 251q74 15 151 18h1h1h1h1h1h1h1h1q4 0 7 1h1h1h1h1h1h1h1h1h1h1h1h2h2h1h1h1h1h1h1h1h1h1h1h1h1h1h1h1h1zM631 1586l98 -236q-68 -29 -130 -71l-143 213q58 39 112 65q1 0 1 1h1q1 0 1 1h1h1v1h1h1v1h1h1v1h1h1v1h1h1v1h1h1v1h1h1v1 h1h1q0 1 1 1h1l1 1zM298 1363l182 -181q-52 -52 -95 -115l-212 142q1 1 1 2t1 2l1 1q0 1 1 1v1l1 1v1h1v1l1 1v1h1v1q1 0 1 1l1 1v1h1v1q0 1 1 1v1h1v1q1 0 1 1t1 1v1h1v1v1h1v1h1v1h1v1q0 1 1 1v1h1v1v1h1v1h1v1l1 1v1h1v1h1v1h1v1v1h1v1h1v1l1 1v1q32 42 74 87q0 1 1 2h1z M1255 756q84 -63 175 -90q-3 -199 -108 -304.5t-293 -105.5h-325v858h330q13 -79 51 -155q-49 11 -88 11h-133v-569h100q77 0 126 9.5t91 38t61 84.5t19 145q0 42 -6 78zM77 1029l236 -97q-30 -75 -42 -142l-252 49q16 78 44 156l1 1v1v1l1 1v1v1h1v1v1l1 1v1v1h1v1v1v1h1v1 v1q1 3 3.5 9t4.5 9zM0 636l256 1q0 -76 15 -148l-251 -50q-8 39 -11 65v1v1v1l-1 1v1v1v1v1v1v2q-1 2 -1 3v1v1v1v1v1q0 1 -1 1v1v1v1v1v1v1v1v1q0 1 -1 2v1v1v1v1v1v1v1v1v1q-1 0 -1 1v1v1v1v7l-1 1v1v1v1v1v1v1v1q0 1 -0.5 4.5t-0.5 5.5v1v1v1v1v1v1v1q0 1 -0.5 5t-0.5 6 v1v1v1v1v1v13h-1v1v1v1v15v2v8zM1975 259l-238 95q27 68 42 142l251 -47q-9 -48 -23 -97q0 -1 -1 -2v-1v-1v-1h-1v-1v-1v-1h-1v-1v-1v-1q0 -1 -1 -1v-1v-1q0 -1 -1 -1v-1v-1v-1h-1v-1v-1v-1q-1 0 -1 -1q0 -2 -2 -6v-1q-10 -29 -23 -64zM80 243l236 100q27 -66 70 -131 l-212 -143q-50 74 -88 160v1h-1v1v1h-1v1v1q-1 0 -1 1v1v1h-1v1q0 1 -1 1v1v1q-1 0 -1 1v1zM1755 -77l-182 179q55 58 93 116l214 -141q-3 -5 -35 -50q-1 0 -1 -1q-1 0 -1 -1l-1 -1q0 -1 -1 -1v-1h-1v-1h-1v-1v-1h-1v-1h-1v-1q-1 0 -1 -1l-1 -1v-1h-1v-1h-1v-1l-1 -1v-1h-1 v-1h-1v-1l-1 -1v-1h-1v-1h-1v-1h-1v-1h-1v-1q0 -1 -1 -1v-1h-1v-1h-1v-1q-1 0 -1 -1l-1 -1v-1h-1v-1h-1v-1h-1v-1q0 -1 -1 -1q0 -1 -1 -1v-1h-1v-1h-1v-1l-1 -1l-1 -1q0 -1 -1 -1v-1h-1v-1h-1v-1h-1v-1l-1 -1q0 -1 -1 -1q-16 -19 -50 -55zM304 -88l180 182q59 -57 116 -94 l-142 -213q-57 37 -101 76l-1 1q-1 0 -1 1h-1v1h-1v1h-1v1h-1v1h-1q0 1 -1 1l-1 1h-1v1h-1v1h-1v1h-1q0 1 -1 1v1h-1l-1 1l-1 1q-1 0 -1 1q-1 0 -1 1h-1v1h-1v1h-1v1h-1v1h-1q0 1 -1 1l-1 1l-1 1l-1 1l-1 1q-1 0 -1 1q-8 7 -23 22zM1425 -303l-101 236q68 28 131 71 l143 -212q-33 -23 -60 -38h-1v-1h-1h-1v-1h-1h-1v-1h-1l-1 -1h-1q0 -1 -1 -1t-1 -1h-1l-1 -1h-1q0 -1 -1 -1h-1q0 -1 -1 -1t-1 -1h-1q-1 0 -1 -1h-1q-41 -23 -93 -46zM639 -309l96 237q75 -30 142 -42l-48 -251q-30 5 -56 12h-1h-1q0 1 -1 1h-1h-1h-1v1h-1h-1h-1h-1v1h-1h-1 h-1l-1 1h-1h-1h-1l-1 1h-1h-1q-1 0 -1 1h-1h-1h-1l-1 1h-1l-9 3h-1h-1h-1q-1 0 -1 1h-1h-1q-1 0 -1 1h-1h-1h-1v1h-1h-1h-1l-1 1h-1h-1q-1 0 -1 1h-1h-1q-1 0 -1 1h-1h-1h-1q0 1 -1 1h-1h-1q0 1 -1 1h-1q-48 16 -71 26zM1032 -384l-2 256q68 0 148 15l51 -250 q-94 -19 -197 -21z" />
<glyph unicode="&#xe107;" d="M1790 673q141 50 239 160q19 -98 19 -193q0 -209 -81 -398.5t-218 -326.5t-326.5 -218t-398.5 -81t-398.5 81t-326.5 218t-218 326.5t-81 398.5t81 398.5t218 326.5t326.5 218t398.5 81q95 0 193 -19q-110 -98 -160 -239q-22 2 -33 2q-156 0 -298 -61t-245 -164 t-164 -245t-61 -298t61 -298t164 -245t245 -164t298 -61t298 61t245 164t164 245t61 298q0 11 -2 33zM1310 719q-44 -82 -140 -113l191 -350h-184l-169 319h-145v-319h-159v858h330q14 -77 47 -147q-31 9 -72 9h-146v-268h124q177 0 187 121q62 -66 136 -110z" />
<glyph unicode="&#xe108;" d="M1790 673q141 50 239 160q19 -98 19 -193q0 -209 -81 -398.5t-218 -326.5t-326.5 -218t-398.5 -81t-398.5 81t-326.5 218t-218 326.5t-81 398.5t81 398.5t218 326.5t326.5 218t398.5 81q95 0 193 -19q-110 -98 -160 -239q-22 2 -33 2q-156 0 -298 -61t-245 -164 t-164 -245t-61 -298t61 -298t164 -245t245 -164t298 -61t298 61t245 164t164 245t61 298q0 11 -2 33zM1255 756q84 -63 175 -90q-3 -199 -108 -304.5t-293 -105.5h-325v858h330q13 -79 51 -155q-49 11 -88 11h-133v-569h100q77 0 126 9.5t91 38t61 84.5t19 145q0 42 -6 78z " />
<glyph unicode="&#xe109;" d="M1790 673q141 50 239 160q19 -98 19 -193q0 -209 -81 -398.5t-218 -326.5t-326.5 -218t-398.5 -81t-398.5 81t-326.5 218t-218 326.5t-81 398.5t81 398.5t218 326.5t326.5 218t398.5 81q95 0 193 -19q-110 -98 -160 -239q-22 2 -33 2q-156 0 -298 -61t-245 -164 t-164 -245t-61 -298t61 -298t164 -245t245 -164t298 -61t298 61t245 164t164 245t61 298q0 11 -2 33zM927 757h327q16 -13 32 -23v-114h-359v-364h-159v858h266q14 -77 46 -143h-153v-214z" />
<glyph unicode="&#xe110;" d="M1790 673q141 50 239 160q19 -98 19 -193q0 -209 -81 -398.5t-218 -326.5t-326.5 -218t-398.5 -81t-398.5 81t-326.5 218t-218 326.5t-81 398.5t81 398.5t218 326.5t326.5 218t398.5 81q95 0 193 -19q-110 -98 -160 -239q-22 2 -33 2q-156 0 -298 -61t-245 -164 t-164 -245t-61 -298t61 -298t164 -245t245 -164t298 -61t298 61t245 164t164 245t61 298q0 11 -2 33zM721 702l76 -17q49 -10 85.5 -23.5t73 -37t56 -62.5t19.5 -91q0 -64 -29 -111.5t-76.5 -72.5t-98 -37t-103.5 -12q-99 0 -185 38t-131 116l113 79q74 -108 225 -108 q62 0 100.5 24.5t38.5 70.5q0 41 -30.5 58.5t-108.5 34.5l-93 21q-41 9 -72 20.5t-64.5 33.5t-51.5 59t-18 87q0 99 76 162.5t209 63.5q184 0 292 -147l-111 -83q-67 108 -189 108q-16 0 -35 -3.5t-43.5 -11.5t-40.5 -27t-16 -46t19 -44.5t42.5 -24.5t70.5 -17zM1280 738 q142 -97 317 -98q3 -18 3 -38v-346h-121v300q0 55 -25.5 83t-70.5 28q-52 0 -90.5 -35.5t-38.5 -91.5v-284h-122v626q50 -71 122 -126v-40q13 13 26 22z" />
<glyph unicode="&#xe111;" d="M1790 673q141 50 239 160q19 -98 19 -193q0 -209 -81 -398.5t-218 -326.5t-326.5 -218t-398.5 -81t-398.5 81t-326.5 218t-218 326.5t-81 398.5t81 398.5t218 326.5t326.5 218t398.5 81q95 0 193 -19q-110 -98 -160 -239q-22 2 -33 2q-156 0 -298 -61t-245 -164 t-164 -245t-61 -298t61 -298t164 -245t245 -164t298 -61t298 61t245 164t164 245t61 298q0 11 -2 33zM512 979v-723h134v268h122l142 -268h155l-161 295q78 26 110.5 81t32.5 118q0 102 -66.5 165.5t-172.5 63.5h-296zM646 862h123q140 0 140 -111q0 -114 -158 -114h-105 v225zM1600 640q4 0 11 0.5t10 0.5q26 -58 26 -126q0 -128 -71.5 -201t-161.5 -73q-81 0 -140 68v-53h-122v599q51 -64 123 -114v-16q2 2 5.5 5t4.5 4q68 -44 137 -65q-14 3 -29 3q-54 0 -87 -42t-33 -106q0 -81 34 -124t91 -43q52 0 87.5 44.5t35.5 122.5q0 47 -23 87 t-66 54q83 -25 168 -25z" />
<glyph unicode="&#xe112;" d="M1790 673q141 50 239 160q19 -98 19 -193q0 -209 -81 -398.5t-218 -326.5t-326.5 -218t-398.5 -81t-398.5 81t-326.5 218t-218 326.5t-81 398.5t81 398.5t218 326.5t326.5 218t398.5 81q95 0 193 -19q-110 -98 -160 -239q-22 2 -33 2q-156 0 -298 -61t-245 -164 t-164 -245t-61 -298t61 -298t164 -245t245 -164t298 -61t298 61t245 164t164 245t61 298q0 11 -2 33zM1073 985q-20 5 -36 5q-67 0 -105 -45t-38 -114l-147 17q5 71 23 113q32 81 101 122.5t160 44.5q12 -76 42 -143zM1161 844q56 -66 124 -109q-34 -42 -88 -79 q-52 -36 -66.5 -61t-14.5 -84v-34h-142v31q0 131 34 180q18 25 53.5 49.5t63.5 49t36 57.5zM966 423h161v-167h-161v167z" />
<glyph unicode="&#xe130;" d="M1024 1152h4q22 -200 165 -343t343 -165v-4q0 -212 -150 -362t-362 -150t-362 150t-150 362t150 362t362 150zM1024 512q53 0 90.5 37.5t37.5 90.5t-37.5 90.5t-90.5 37.5t-90.5 -37.5t-37.5 -90.5t37.5 -90.5t90.5 -37.5z" />
<glyph unicode="&#xe131;" d="M1474 654l162 -209q124 13 209 -72q75 -75 75 -181t-75 -181t-181 -75t-181 75q-57 57 -71 135t18 148l-246 317q-78 -35 -160 -35q-83 0 -159 35l-247 -317q32 -70 18 -148t-71 -135q-75 -75 -181 -75t-181 75t-75 181t75 181q85 85 209 72l268 346q-40 82 -40 169 q0 159 112.5 271.5t271.5 112.5q2 0 7 -0.5t8 -0.5q-15 -62 -15 -127q0 -60 15 -130q-10 2 -15 2q-53 0 -90.5 -37.5t-37.5 -90.5t37.5 -90.5t90.5 -37.5q65 0 104 54q61 -87 151 -147.5t195 -84.5z" />
<glyph unicode="&#xe132;" d="M1600 640q226 0 394 157q54 -72 54 -157q0 -106 -75 -181t-181 -75q-70 0 -128 35t-92 93h-186q-8 -22 -16 -37l101 -101q63 18 130 1t116 -66q75 -75 75 -181t-75 -181t-181 -75t-181 75q-49 49 -66 116t1 130l-101 101q-15 -8 -37 -16v-186q58 -34 93 -92t35 -128 q0 -106 -75 -181t-181 -75t-181 75t-75 181q0 70 35 128t93 92v186q-22 8 -37 16l-101 -101q18 -63 1 -130t-66 -116q-75 -75 -181 -75t-181 75t-75 181t75 181q49 49 116 66t130 -1l101 101q-8 15 -16 37h-185q-35 -58 -93 -93t-128 -35q-106 0 -181 75t-75 181t75 181 t181 75q70 0 128 -35t93 -93h185q8 22 16 37l-101 101q-63 -18 -130 -1t-116 66q-75 75 -75 181t75 181t181 75t181 -75q49 -49 66 -116t-1 -130l101 -101q15 8 37 16v186q-58 34 -93 92t-35 128q0 106 75 181t181 75q85 0 157 -54q-157 -168 -157 -394q0 -117 45.5 -223.5 t123 -184t184 -123t223.5 -45.5zM1024 512q53 0 90.5 37.5t37.5 90.5t-37.5 90.5t-90.5 37.5t-90.5 -37.5t-37.5 -90.5t37.5 -90.5t90.5 -37.5z" />
<glyph unicode="&#xe133;" d="M2048 1024l-256 -512l-512 512h323q-56 111 -135.5 176t-174.5 78q-83 10 -157 -22t-109 -93q-6 -9 -7 -11q4 28 4 64q0 126 -53 241q162 99 354 75q45 -6 90.5 -19t114 -49t127.5 -88t120.5 -143.5t104.5 -208.5h166zM991 1027q8 -143 163 -319q76 -86 129 -171 t79.5 -156.5t35 -141t3 -124t-22.5 -107t-37 -89.5t-45 -71q-69 -93 -172 -142.5t-225 -49.5q-56 0 -116 12q-190 36 -333.5 167t-195.5 316q-112 40 -183 139t-71 222q0 144 94 251q157 -123 354 -123q141 0 267 66q53 -92 53 -194q0 -120 -67.5 -217t-175.5 -140 q45 -95 130 -156.5t176 -79.5q26 -5 53.5 -6t66 4t75.5 26t64 57q160 215 -127 538q-100 113 -158 227q131 103 186 262zM384 384q53 0 90.5 37.5t37.5 90.5t-37.5 90.5t-90.5 37.5t-90.5 -37.5t-37.5 -90.5t37.5 -90.5t90.5 -37.5z" />
<glyph unicode="&#xe134;" d="M1792 1408v-640l-640 256l237 142q-1 0 -1 0.5t-1 0.5q-163 113 -363 113h-4q-15 135 -90 251q52 5 94 5q279 0 509 -158q41 -29 89 -72zM1408 384q159 0 271.5 -112.5t112.5 -271.5t-112.5 -271.5t-271.5 -112.5q-85 0 -161 35.5t-130 97.5q-52 -5 -93 -5 q-182 0 -348 71t-286 191t-191 286t-71 348q0 42 5 94q116 -75 251 -90v-4q0 -130 51 -248.5t136.5 -204t204 -136.5t248.5 -51q0 159 112.5 271.5t271.5 112.5zM1408 -128q53 0 90.5 37.5t37.5 90.5t-37.5 90.5t-90.5 37.5t-90.5 -37.5t-37.5 -90.5t37.5 -90.5t90.5 -37.5z " />
<glyph unicode="&#xe135;" d="M1960 767q88 -77 88 -191q0 -106 -75 -181t-181 -75q-35 0 -74 12q-28 -165 -125.5 -299t-247.5 -211.5t-321 -77.5t-321 77.5t-247.5 211.5t-125.5 299q-39 -12 -74 -12q-106 0 -181 75t-75 181t75 181t181 75v832h128v-412q85 185 257.5 298.5t382.5 113.5 q94 0 186 -26q-107 -97 -153 -232q-22 2 -33 2q-185 0 -316.5 -131.5t-131.5 -316.5v-512q0 -185 131.5 -316.5t316.5 -131.5t316.5 131.5t131.5 316.5v207q62 -15 128 -15q202 0 360 127zM1039 1086q38 -163 155 -278q-25 -47 -70.5 -75.5t-99.5 -28.5q-80 0 -136 56 t-56 136t56 136t136 56q5 0 15 -2z" />
<glyph unicode="&#xe136;" d="M704 896l-576 -576l-128 768l218 -59q110 229 327 368t479 139q42 0 94 -5q-70 -108 -88 -234h-6q-180 0 -332 -90.5t-238 -242.5zM1088 671l295 -229l-78 -101l-345 268v543h68q12 -104 60 -199v-282zM1681 640v6q126 18 234 88q5 -52 5 -94q0 -182 -71 -348t-191 -286 t-286 -191t-348 -71q-243 0 -448.5 120.5t-323.5 323.5l176 176q80 -171 240.5 -276t355.5 -105q133 0 255 52t210 140t140 210t52 255z" />
<glyph unicode="&#xe137;" d="M1591 640l-104 -234q49 -69 49 -150q0 -106 -75 -181t-181 -75t-181 75t-75 181q0 57 27 113l-260 390l-328 -737q49 -69 49 -150q0 -106 -75 -181t-181 -75t-181 75t-75 181q0 98 65.5 170t162.5 83l333 749q-49 69 -49 150q0 106 75 181t181 75t181 -75t75 -181 q0 -57 -27 -113l261 -390l81 182q117 -60 252 -63zM768 896q53 0 90.5 37.5t37.5 90.5t-37.5 90.5t-90.5 37.5t-90.5 -37.5t-37.5 -90.5t37.5 -90.5t90.5 -37.5zM1280 128q53 0 90.5 37.5t37.5 90.5t-37.5 90.5t-90.5 37.5t-90.5 -37.5t-37.5 -90.5t37.5 -90.5t90.5 -37.5z M256 -256q53 0 90.5 37.5t37.5 90.5t-37.5 90.5t-90.5 37.5t-90.5 -37.5t-37.5 -90.5t37.5 -90.5t90.5 -37.5z" />
<glyph unicode="&#xe138;" d="M1594 640q-166 -1 -302.5 -89.5t-207.5 -233.5q-88 -6 -169.5 -26t-155.5 -57t-128.5 -87.5t-86.5 -121t-32 -153.5h-256q0 212 118 367.5t316 242.5q-67 27 -141 33q-9 -1 -37.5 -1t-38.5 1q-44 -2 -85 -10t-90.5 -30t-85 -55.5t-60 -91t-24.5 -131.5h-128 q0 152 79.5 260.5t221.5 155.5q-109 120 -109 303q0 164 92 264t228 100q100 0 179 -56q61 146 184.5 229t276.5 83q106 0 199.5 -41t162.5 -114.5t109.5 -182.5t40.5 -238q0 -170 -70 -320zM1152 1280q-117 0 -186.5 -87t-69.5 -233q0 -154 77 -269t179 -115t179 115 t77 269q0 146 -69.5 233t-186.5 87zM516 644q45 1 84.5 33t64.5 85q-25 97 -25 198q0 57 10 122q-52 66 -138 66q-85 0 -136.5 -64t-51.5 -168q0 -109 54.5 -189.5t129.5 -82.5h2l2 1l2 -1h2z" />
<glyph unicode="&#xe139;" d="M1423 559q74 -10 138 -25.5t129 -42.5t117 -63t98 -89.5t76.5 -119.5t48.5 -154t18 -193h-256q0 97 -16 166.5t-56 120t-95 81.5t-146.5 49t-196.5 24.5t-258 6.5t-258 -6.5t-196.5 -24.5t-146.5 -49t-95 -81.5t-56 -120t-16 -166.5h-256q0 105 18 193t48.5 154 t76.5 119.5t98 89.5t117 63t129 42.5t138 25.5q-113 176 -113 401q0 129 40.5 238t109.5 182.5t162.5 114.5t199.5 41q47 0 92 -9q-73 -114 -88 -247h-4q-117 0 -186.5 -87t-69.5 -233q0 -154 77 -269t179 -115q66 0 124.5 52t93.5 138q102 -82 231 -112q-22 -53 -50 -95z " />
<glyph unicode="&#xe140;" d="M1856 640v-110q35 -19 65.5 -43t61 -57.5t48 -78.5t17.5 -95q0 -156 -37 -226q-59 -114 -202 -114q-51 0 -185 25q-96 18 -159 27.5t-188 20.5t-253 11t-253 -11t-188 -20.5t-159 -27.5q-134 -25 -185 -25q-49 0 -88 14.5t-64 34.5t-42.5 53.5t-26 60t-13 66t-5 59.5 t-0.5 52q0 50 17.5 95t48 78.5t61 57.5t65.5 43v110q0 265 141 456t386 267q27 76 93.5 124.5t149.5 48.5h124q18 0 34 -3q-77 -117 -92 -253h-66q-27 0 -46.5 -19t-19.5 -45v-576h-128v469q-145 -53 -232.5 -169t-87.5 -300v-284l-87 -29q-35 -12 -68.5 -35t-36.5 -36 q0 -34 3 -82q30 2 119 19q345 63 646 63t646 -63q89 -17 119 -19q3 48 3 82q-3 13 -37 36.5t-67 34.5l-88 29v284q132 0 254 60q2 -40 2 -60zM1280 640h-128v215q57 -69 128 -118v-97z" />
<glyph unicode="&#xe141;" d="M1275 741q118 -81 261 -97v-4q0 -263 -145 -437.5t-367 -198.5v-381h-128v381q-222 24 -367 197t-145 439q0 157 32 298t82.5 241.5t112 185.5t123 138.5t112 91t82.5 53.5l32 16q76 -34 172 -113q-81 -113 -102 -254l-6 7v-1041q117 23 186.5 124.5t69.5 252.5 q0 46 -5 101zM896 263v1041q-256 -254 -256 -664q0 -151 69.5 -252.5t186.5 -124.5z" />
<glyph unicode="&#xe142;" d="M1792 640h-192q133 0 250 57.5t198 157.5v-855h-2048v905l562 375h466q-4 -28 -4 -64q0 -99 34 -192h-418l-384 -256h983q158 -128 361 -128h-1344v-384h1536v384zM384 512h128v-128h-128v128zM640 512h128v-128h-128v128z" />
<glyph unicode="&#xe200;" d="M384 1472q0 80 -56 136t-136 56t-136 -56t-56 -136t56 -136t136 -56t136 56t56 136zM1152 1472q0 80 -56 136t-136 56t-136 -56t-56 -136t56 -136t136 -56t136 56t56 136zM1920 1472q0 80 -56 136t-136 56t-136 -56t-56 -136t56 -136t136 -56t136 56t56 136zM768 1088 q0 80 -56 136t-136 56t-136 -56t-56 -136t56 -136t136 -56t136 56t56 136zM1536 1088q0 80 -56 136t-136 56t-136 -56t-56 -136t56 -136t136 -56t136 56t56 136zM384 704q0 80 -56 136t-136 56t-136 -56t-56 -136t56 -136t136 -56t136 56t56 136zM1152 704q0 80 -56 136 t-136 56t-136 -56t-56 -136t56 -136t136 -56t136 56t56 136zM768 320q0 80 -56 136t-136 56t-136 -56t-56 -136t56 -136t136 -56t136 56t56 136zM384 -64q0 80 -56 136t-136 56t-136 -56t-56 -136t56 -136t136 -56t136 56t56 136z" />
<glyph unicode="&#xe201;" d="M1913 0h-527q-40 -113 -139 -184.5t-223 -71.5t-223 71.5t-139 184.5h-524l137 350q41 104 74 212t35 143v4q0 69 4 122t15.5 115.5t31.5 109.5t54.5 95.5t82.5 82t118 60t158 38.5q-16 37 -16 76q0 80 56 136t136 56t136 -56t56 -136q0 -40 -15 -75q212 -27 328 -144 q40 -41 67.5 -89.5t40.5 -96t20.5 -100.5t6.5 -101.5t0 -98.5q1 -35 34 -141.5t74 -210.5zM640 704q0 -57 -32 -169t-64 -195l-31 -84h511h511q-14 36 -35.5 92.5t-56.5 177.5t-35 178q1 48 0 90t-5 78t-14 66t-28 54t-46 42t-68.5 30t-95.5 18t-127 6q-71 0 -126 -5 t-95 -20t-68 -28t-46 -43.5t-28 -51.5t-14.5 -67.5t-5.5 -75.5t-1 -90v-3z" />
<glyph unicode="&#xe202;" d="M1920 1152h-1792v-256h1792v256zM1920 640h-1792v-256h1792v256zM1920 128h-1792v-256h1792v256z" />
<glyph unicode="&#xe203;" d="M512 896q0 106 -75 181t-181 75t-181 -75t-75 -181t75 -181t181 -75t181 75t75 181zM2048 1152h-1280v-256h1280v256zM2048 640h-1280v-256h1280v256zM2048 128h-1280v-256h1280v256z" />
<glyph unicode="&#xe204;" d="M1824 935q104 -71 164 -183t60 -240q0 -104 -40.5 -198.5t-109.5 -163.5t-163.5 -109.5t-198.5 -40.5h-1038l-14 2q-136 15 -247 91t-174 195t-63 256q0 175 100.5 315t260.5 197q69 185 232.5 300.5t366.5 115.5q153 0 289 -70t226 -191q119 -18 212 -92.5t137 -183.5z M512 256h1024q106 0 181 75t75 181q0 88 -54.5 157t-138.5 90q0 1 0.5 4t0.5 5q0 80 -56 136t-136 56q-19 0 -41 -5h-2q-13 -3 -37 -13q-50 -23 -81 -70t-31 -104h-128q0 94 50.5 171.5t132.5 116.5q-53 74 -135 117t-176 43q-159 0 -271.5 -112.5t-112.5 -271.5v-3 q-4 0 -10.5 1t-11.5 1.5t-10 0.5q-119 0 -203.5 -84.5t-84.5 -203.5q0 -111 74 -193.5t182 -94.5z" />
<glyph unicode="&#xe205;" d="M1792 896v-256h-1280v-512h1024v128h256v-384h-1536v1024h256v256q0 104 40.5 198.5t109.5 163.5t163.5 109.5t198.5 40.5t198.5 -40.5t163.5 -109.5t109.5 -163.5t40.5 -198.5v-256h256zM1280 896v256q0 106 -75 181t-181 75t-181 -75t-75 -181v-256h512zM1536 512h256 v-128h-256v128z" />
<glyph unicode="&#xe206;" d="M1792 256h-1536v896q0 106 75 181t181 75h1024q106 0 181 -75t75 -181v-896zM1536 1152h-1024v-640h1024v640zM2048 128v-128q0 -53 -37.5 -90.5t-90.5 -37.5h-1792q-53 0 -90.5 37.5t-37.5 90.5v128h2048z" />
<glyph unicode="&#xe207;" d="M1792 1152v-1408h-1664v1792h1152v-384h512zM384 0h640v1280h-640v-1280zM512 1152h128v-256h-128v256zM768 1152h128v-256h-128v256zM1152 0h384v896h-384v-896zM512 768h128v-256h-128v256zM768 768h128v-256h-128v256zM1280 768h128v-256h-128v256zM512 384h128v-256 h-128v256zM768 384h128v-256h-128v256zM1280 384h128v-256h-128v256z" />
<glyph unicode="&#xe208;" d="M1920 896v-1152h-1792v1664h1408zM1664 811l-256 341h-256v-384h-640v384h-128v-1152h128v384h640v-384h512v811zM896 896h128v256h-128v-256zM1024 256h-384v-128h384v128zM1024 0h-384v-128h384v128z" />
<glyph unicode="&#xe209;" d="M1748 1364q147 -147 224 -338.5t77 -385.5t-77 -385.5t-224 -338.5t-335.5 -223.5t-388.5 -76.5t-388.5 76.5t-335.5 223.5t-224 338.5t-77 385.5t77 385.5t224 338.5t335.5 223.5t388.5 76.5t388.5 -76.5t335.5 -223.5zM1024 1408q-244 0 -445 -142l185 -185 q121 71 260 71t260 -71l185 185q-201 142 -445 142zM583 900l-184 184q-142 -199 -142 -444t142 -444l184 184q-71 120 -71 260t71 260zM1465 380l184 -184q142 199 142 444t-142 444l-184 -184q71 -120 71 -260t-71 -260zM1408 640q0 158 -112 272q-114 112 -272 112 t-272 -112q-112 -114 -112 -272t112 -272q114 -112 272 -112t272 112q112 114 112 272zM1024 -128q244 0 445 142l-185 185q-121 -71 -260 -71t-260 71l-185 -185q201 -142 445 -142z" />
<glyph unicode="&#xe210;" d="M1024 1664q278 0 459 -181t181 -459v-768h-256v768q0 179 -109.5 281.5t-274.5 102.5t-274.5 -102.5t-109.5 -281.5v-768h-256v768q0 278 181 459t459 181zM0 640q0 68 6 121.5t23 104.5t45 84.5t74 53.5t108 20v-768q-62 0 -108 20t-74 53.5t-45 84.5t-23 104.5 t-6 121.5zM1792 256v768q62 0 108 -20t74 -53.5t45 -84.5t23 -104.5t6 -121.5t-6 -121.5t-23 -104.5t-45 -84.5t-74 -53.5t-108 -20zM256 256h128v-283l256 -146v45h256v-256h-256v63l-384 220v357z" />
<glyph unicode="&#xe211;" d="M1536 576h-448v-448h-128v448h-448v128h448v448h128v-448h448v-128z" />
<glyph unicode="&#xe212;" d="M1115 640l316 -317l-90 -90l-317 316l-317 -316l-90 90l317 317l-317 317l90 90l317 -317l317 317l90 -90z" />
<glyph unicode="&#xe213;" d="M1581 787l-90 90l-595 -594l-339 338l-90 -90l429 -429z" />
<glyph unicode="&#xe214;" d="M384 1152h1280q106 0 181 -75t75 -181v-768q0 -106 -75 -181t-181 -75h-1280q-106 0 -181 75t-75 181v768q0 106 75 181t181 75zM1664 768v128h-1280v-128h1280zM1664 512h-1280v-384h1280v384zM1152 256v128h384v-128h-384z" />
<glyph unicode="&#xe215;" d="M256 -128h1536v-128h-1664v1664h128v-1536zM1408 0h-256v1280h256v-1280zM1792 1024v-1024h-256v1024h256zM1024 0h-256v896h256v-896zM640 0h-256v640h256v-640z" />
<glyph unicode="&#xe216;" d="M1664 1152v-640q0 -106 -75 -181t-181 -75h-256v-512h-256v512h-256q-106 0 -181 75t-75 181v640h256v391h128v-391h512v391h128v-391h256zM1408 896h-768v-384h768v384z" />
<glyph unicode="&#xe217;" d="M1280 640h-704q-156 0 -289 60t-210 163t-77 225t77 225t210 163t289 60t289 -60t210 -163t77 -225q0 -152 -121 -275zM1230 1280h562q106 0 181 -75t75 -181v-1152q0 -106 -75 -181t-181 -75h-768q-106 0 -181 75t-75 181v648h256v-648h768v1152h-524q4 28 4 64 q0 99 -42 192zM1216 831v35l15 30h369v-128h-293zM1408 256q53 0 90.5 -37.5t37.5 -90.5t-37.5 -90.5t-90.5 -37.5t-90.5 37.5t-37.5 90.5t37.5 90.5t90.5 37.5z" />
<glyph unicode="&#xe218;" d="M640 1280h768q106 0 181 -75t75 -181v-1152q0 -106 -75 -181t-181 -75h-768q-106 0 -181 75t-75 181v1152q0 106 75 181t181 75zM1408 1024h-768v-1152h768v1152zM1216 768h-384v128h384v-128zM1024 256q53 0 90.5 -37.5t37.5 -90.5t-37.5 -90.5t-90.5 -37.5t-90.5 37.5 t-37.5 90.5t37.5 90.5t90.5 37.5z" />
<glyph unicode="&#xe219;" d="M704 896l-576 -576l-128 768l218 -59q110 229 327 368t479 139q243 0 448.5 -120.5t323.5 -323.5l-176 -176q-80 171 -240.5 276t-355.5 105q-180 0 -332 -90.5t-238 -242.5zM2048 192l-218 59q-110 -229 -327 -368t-479 -139q-243 0 -448.5 120.5t-323.5 323.5l176 176 q80 -171 240.5 -276t355.5 -105q180 0 332 90.5t238 242.5l-250 68l576 576z" />
<glyph unicode="&#xe220;" d="M1664 896q0 -214 -129 -384h1l-512 -768l-512 768h1q-129 170 -129 384q0 130 51 248.5t136.5 204t204 136.5t248.5 51t248.5 -51t204 -136.5t136.5 -204t51 -248.5zM640 896q0 -159 112.5 -271.5t271.5 -112.5t271.5 112.5t112.5 271.5t-112.5 271.5t-271.5 112.5 t-271.5 -112.5t-112.5 -271.5zM1088 933l190 -110l-64 -110l-254 146v293h128v-219z" />
<glyph unicode="&#xe221;" d="M1728 -320l-779 779l-309 -309l-618 618l768 768h1236l-757 -757l779 -779zM603 987l256 -256l549 549h-512zM768 640l-256 256l-128 -128l256 -256zM1040 549l688 -688l139 139l-688 688z" />
<glyph unicode="&#xe222;" d="M1664 1024l-256 256l-211 -211l256 -256zM1363 723l-256 256l-595 -595l-128 -384l384 128z" />
<glyph unicode="&#xe223;" d="M1152 1600v-194q207 -6 366.5 -53.5t257.5 -119t161 -171.5t87 -202t24 -220q-31 62 -83 106t-111.5 65t-125.5 21t-125.5 -21t-111.5 -65t-83 -106q-38 77 -106 124.5t-150 61.5v-826q0 -132 -94 -226t-226 -94t-226 94t-94 226v64h128v-64q0 -80 56 -136t136 -56 t136 56t56 136v826q-82 -14 -150 -61.5t-106 -124.5q-31 62 -83 106t-111.5 65t-125.5 21t-125.5 -21t-111.5 -65t-83 -106q0 84 12 159t41 152t74.5 141t116.5 121t162 97.5t216 66t274 29.5v194h128z" />
<glyph unicode="&#xe224;" d="M192 896q-80 0 -136 -56t-56 -136t56 -136t136 -56t136 56t56 136t-56 136t-136 56zM960 896q-80 0 -136 -56t-56 -136t56 -136t136 -56t136 56t56 136t-56 136t-136 56zM1728 896q-80 0 -136 -56t-56 -136t56 -136t136 -56t136 56t56 136t-56 136t-136 56z" />
<glyph unicode="&#xe225;" d="M768 1472q0 80 -56 136t-136 56t-136 -56t-56 -136t56 -136t136 -56t136 56t56 136zM1280 1664h-128v-1920h128v1920zM768 704q0 80 -56 136t-136 56t-136 -56t-56 -136t56 -136t136 -56t136 56t56 136zM768 -64q0 80 -56 136t-136 56t-136 -56t-56 -136t56 -136t136 -56 t136 56t56 136z" />
<glyph unicode="&#xe226;" d="M1792 1152h-1536v-128h1536v128zM1792 640h-1536v-128h1536v128zM1792 128h-1536v-128h1536v128z" />
<glyph unicode="&#xe227;" d="M1435 934l270 270q23 -55 23 -116q0 -133 -93.5 -226.5t-226.5 -93.5q-61 0 -116 23l-534 -534q18 -63 1 -130t-66 -116q-75 -75 -181 -75t-181 75t-75 181t75 181t181 75q30 0 65 -10l534 534q-23 55 -23 116q0 133 93.5 226.5t226.5 93.5q61 0 116 -23l-270 -270z M603 101q37 39 37 91t-37 91q-39 37 -91 37q-53 0 -90 -37q-38 -38 -38 -91q0 -52 37 -91q39 -37 91 -37t91 37z" />
<glyph unicode="&#xe228;" d="M896 1152h-768v-512h768v512zM1920 1152h-768v-512h768v512zM896 384h-768v-512h768v512zM1920 384h-768v-512h768v512z" />
<glyph unicode="&#xe229;" d="M1792 896v-1024h-1536v1024h256v256q0 104 40.5 198.5t109.5 163.5t163.5 109.5t198.5 40.5t198.5 -40.5t163.5 -109.5t109.5 -163.5t40.5 -198.5v-256h256zM768 896h512v256q0 106 -75 181t-181 75t-181 -75t-75 -181v-256zM768 184v70q0 90 -85 152l-126 90 q-28 20 -35 39t-7 50q0 46 14.5 63t44.5 17q57 0 57 -64v-89h128v97q0 82 -52 120.5t-128 38.5q-190 0 -190 -182v-14q0 -50 14 -87t29.5 -53t39.5 -33l122 -86q24 -17 34.5 -37t10.5 -56v-25q0 -49 -12.5 -70t-51.5 -21t-50.5 19.5t-11.5 50.5v82h-129v-88q0 -168 195 -168 q108 0 148.5 48.5t40.5 135.5zM1216 184v70q0 90 -85 152l-126 90q-28 20 -35 39t-7 50q0 46 14.5 63t44.5 17q57 0 57 -64v-89h128v97q0 82 -52 120.5t-128 38.5q-190 0 -190 -182v-14q0 -50 14 -87t29.5 -53t39.5 -33l122 -86q24 -17 34.5 -37t10.5 -56v-25 q0 -49 -12.5 -70t-51.5 -21t-50.5 19.5t-11.5 50.5v82h-129v-88q0 -168 195 -168q108 0 148.5 48.5t40.5 135.5zM1664 128h-251v640h-133v-768h384v128z" />
<glyph unicode="&#xe230;" d="M1427 558q-119 -94 -142 -245q-108 7 -261 7t-258 -6.5t-196.5 -24.5t-146.5 -49t-95 -81.5t-56 -120t-16 -166.5h-256q0 105 18 193t48.5 154t77 119.5t98.5 89.5t117 63t129 42.5t138 25.5q-114 175 -114 401q0 129 40.5 238t109.5 182.5t162.5 114.5t199.5 41 t199.5 -41t162.5 -114.5t109.5 -182.5t40.5 -238q0 -225 -113 -401q1 -1 4 -1zM1024 576q102 0 179 115t77 269q0 146 -69.5 233t-186.5 87t-186.5 -87t-69.5 -233q0 -154 77 -269t179 -115zM2048 64v-448h-768v448h128v192q0 106 75 181t181 75t181 -75t75 -181v-192h128z M1536 64h256v192q0 52 -38 90t-90 38t-90 -38t-38 -90v-192z" />
<glyph unicode="&#xe300;" d="M1792 832q106 0 181 -75t75 -181t-75 -181t-181 -75q-35 0 -74 12q-28 -165 -125.5 -299t-247.5 -211.5t-321 -77.5t-321 77.5t-247.5 211.5t-125.5 299q-39 -12 -74 -12q-106 0 -181 75t-75 181t75 181t181 75v832h128v-412q85 185 257.5 298.5t382.5 113.5 q191 0 353 -94.5t256.5 -256.5t94.5 -353v-137q38 9 64 9zM1472 448v512q0 185 -131.5 316.5t-316.5 131.5t-316.5 -131.5t-131.5 -316.5v-512q0 -185 131.5 -316.5t316.5 -131.5t316.5 131.5t131.5 316.5zM1024 1088q80 0 136 -56t56 -136t-56 -136t-136 -56t-136 56 t-56 136t56 136t136 56z" />
<glyph unicode="&#xe301;" d="M1024 1536q182 0 348 -71t286 -191t191 -286t71 -348t-71 -348t-191 -286t-286 -191t-348 -71q-243 0 -448.5 120.5t-323.5 323.5l176 176q80 -171 240.5 -276t355.5 -105q133 0 255 52t210 140t140 210t52 255t-52 255t-140 210t-210 140t-255 52q-180 0 -332 -90.5 t-238 -242.5l250 -68l-576 -576l-128 768l218 -59q110 229 327 368t479 139zM1088 1152v-481l295 -229l-78 -101l-345 268v543h128z" />
<glyph unicode="&#xe302;" d="M1792 1664q106 0 181 -75t75 -181q0 -98 -65.5 -170t-162.5 -83l-333 -749q49 -69 49 -150q0 -106 -75 -181t-181 -75q-24 0 -52 5q-51 11 -91 39q-20 13 -38 31q-35 35 -55 81q-20 48 -20 100t20 100q1 1 3.5 5.5t3.5 7.5l-260 390l-328 -737q49 -69 49 -150 q0 -106 -75 -181t-181 -75q-24 0 -52 5q-51 11 -91 39q-20 13 -38 31q-35 35 -55 81q-20 48 -20 100t20 100q20 46 55 81q18 18 38 31q40 28 91 39q4 1 12 1t12 1l333 749q-19 28 -29 50q-20 48 -20 100t20 100q20 46 55 81q18 18 38 31q40 28 91 39q28 5 52 5 q106 0 181 -75t75 -181q0 -57 -27 -113l261 -390l327 737q-19 28 -29 50q-20 48 -20 100t20 100q20 46 55 81q18 18 38 31q40 28 91 39q28 5 52 5zM1792 1280q53 0 90.5 37.5t37.5 90.5t-37.5 90.5t-90.5 37.5t-90.5 -37.5t-37.5 -90.5t37.5 -90.5t90.5 -37.5zM768 896 q53 0 90.5 37.5t37.5 90.5t-37.5 90.5t-90.5 37.5t-90.5 -37.5t-37.5 -90.5t37.5 -90.5t90.5 -37.5zM1280 128q53 0 90.5 37.5t37.5 90.5t-37.5 90.5t-90.5 37.5t-90.5 -37.5t-37.5 -90.5t37.5 -90.5t90.5 -37.5zM256 -256q53 0 90.5 37.5t37.5 90.5t-37.5 90.5t-90.5 37.5 t-90.5 -37.5t-37.5 -90.5t37.5 -90.5t90.5 -37.5z" />
<glyph unicode="&#xe303;" d="M1521 517q113 -37 207 -95.5t166.5 -138.5t113 -185t40.5 -226h-256q0 111 -56 199t-149 141t-204.5 80.5t-230.5 27.5t-230.5 -27.5t-204.5 -80.5t-149 -141t-56 -199h-256q0 212 118 367.5t316 242.5q-66 27 -141 33q-18 -3 -37 -3q-20 0 -39 3q-44 -2 -85 -10 t-90.5 -30t-85 -55.5t-60 -91t-24.5 -131.5h-128q0 152 79.5 260.5t221.5 155.5q-109 120 -109 303q0 164 92 264t228 100q100 0 179 -56q61 146 184 229t277 83q106 0 199.5 -41t162.5 -114.5t109.5 -182.5t40.5 -238q0 -258 -143 -443zM1152 576q102 0 179 115t77 269 q0 146 -69.5 233t-186.5 87t-186.5 -87t-69.5 -233q0 -154 77 -269t179 -115zM516 644q45 1 84.5 33t65.5 85q-26 95 -26 198q0 66 10 122q-52 66 -138 66q-85 0 -136.5 -64t-51.5 -168q0 -109 54.5 -189.5t129.5 -82.5h2l2 1l2 -1h2z" />
<glyph unicode="&#xe304;" d="M1423 495q74 -10 138 -25.5t129 -42.5t117 -63t98 -89.5t76.5 -119.5t48.5 -154t18 -193h-256q0 97 -16 166.5t-56 120t-95 81.5t-146.5 49t-196.5 24.5t-258 6.5t-258 -6.5t-196.5 -24.5t-146.5 -49t-95 -81.5t-56 -120t-16 -166.5h-256q0 105 18 193t48.5 154t77 119.5 t98.5 89.5t117 63t129 42.5t138 25.5q-114 175 -114 401q0 129 40.5 238t109.5 182.5t162.5 114.5t199.5 41t199.5 -41t162.5 -114.5t109.5 -182.5t40.5 -238q0 -225 -113 -401zM768 896q0 -154 77 -269t179 -115t179 115t77 269q0 146 -69.5 233t-186.5 87 q-116 0 -186 -87.5t-70 -232.5z" />
<glyph unicode="&#xe305;" d="M1856 640v-110q35 -19 65.5 -43t61 -57.5t48 -78.5t17.5 -95q0 -156 -37 -226q-59 -114 -202 -114q-51 0 -185 25q-96 18 -159 27.5t-188 20.5t-253 11t-253 -11t-188 -20.5t-159 -27.5q-134 -25 -185 -25q-49 0 -88 14.5t-64 34.5t-42.5 53.5t-26 60t-13 66t-5 59.5 t-0.5 52q0 50 17.5 95t48 78.5t61 57.5t65.5 43v110q0 265 141 456t386 267q27 76 93.5 124.5t149.5 48.5h124q83 0 149.5 -48.5t93.5 -124.5q245 -76 386 -267t141 -456zM1789 174q3 48 3 82q-3 13 -37 36.5t-67 34.5l-88 29v284q0 184 -87.5 300.5t-232.5 169.5v-470h-128 v576q0 26 -19.5 45t-46.5 19h-124q-27 0 -46.5 -19t-19.5 -45v-576h-128v470q-145 -53 -232.5 -169.5t-87.5 -300.5v-284l-87 -29q-35 -12 -68.5 -35t-36.5 -36q0 -34 3 -82q30 2 119 19q345 63 646 63t646 -63q89 -17 119 -19z" />
<glyph unicode="&#xe306;" d="M1600 640q0 -263 -145 -437.5t-367 -198.5v-381h-128v381q-222 24 -367 197t-145 439q0 157 32 298t82.5 241.5t112 185.5t123 138.5t112 91t82.5 53.5l32 16q12 -5 33 -16t80.5 -53t114 -92.5t121 -137.5t114 -186t80.5 -240.5t33 -298.5zM704 640q0 -151 69.5 -252.5 t186.5 -124.5v1041q-256 -254 -256 -664zM1088 1304v-1041q117 23 186.5 124.5t69.5 252.5q0 410 -256 664z" />
<glyph unicode="&#xe307;" d="M1280 1536q183 0 323 -23.5t222.5 -60.5t134.5 -89.5t70 -103t18 -107.5v-960q0 -57 -18 -107.5t-70 -103t-134.5 -89.5t-222.5 -60.5t-323 -23.5t-323 23.5t-222.5 60.5t-134.5 89.5t-70 103t-18 107.5v64q-122 0 -215 14t-148.5 35.5t-90 52t-46.5 60t-12 62.5v512 q0 66 45.5 112.5t124.5 69.5t161.5 32.5t180.5 9.5h7q10 51 37 94.5t84 86t139.5 72.5t210.5 48.5t290 18.5zM1280 1024q212 0 362 37.5t150 90.5t-150 90.5t-362 37.5q-169 0 -303.5 -25t-184.5 -64q-8 -7 -16 -17l-2 -4q-6 -9 -6 -18q0 -53 150 -90.5t362 -37.5zM512 896 v192q-159 0 -271.5 -28t-112.5 -68t112.5 -68t271.5 -28zM1792 832v147q-166 -83 -512 -83q-349 0 -512 84v-148q0 -53 150 -90.5t362 -37.5t362 37.5t150 90.5zM128 826v-90q0 -40 112.5 -68t271.5 -28v128q-255 0 -384 58zM1792 512v147q-166 -83 -512 -83q-349 0 -512 84 v-148q0 -53 150 -90.5t362 -37.5t362 37.5t150 90.5zM128 570v-90q0 -40 112.5 -68t271.5 -28v128q-255 0 -384 58zM1792 192v147q-166 -83 -512 -83q-349 0 -512 84v-148q0 -53 150 -90.5t362 -37.5t362 37.5t150 90.5z" />
<glyph unicode="&#xe308;" d="M1024 1536q183 0 323 -23.5t222.5 -60.5t134.5 -89.5t70 -103t18 -107.5v-960q0 -57 -18 -107.5t-70 -103t-134.5 -89.5t-222.5 -60.5t-323 -23.5t-323 23.5t-222.5 60.5t-134.5 89.5t-70 103t-18 107.5v960q0 57 18 107.5t70 103t134.5 89.5t222.5 60.5t323 23.5z M1024 1280q-212 0 -362 -37.5t-150 -90.5t150 -90.5t362 -37.5t362 37.5t150 90.5t-150 90.5t-362 37.5zM1024 704q212 0 362 37.5t150 90.5v147q-166 -83 -512 -83q-349 0 -512 84v-148q0 -53 150 -90.5t362 -37.5zM512 660v-148q0 -53 150 -90.5t362 -37.5t362 37.5 t150 90.5v147q-166 -83 -512 -83q-349 0 -512 84zM1024 64q212 0 362 37.5t150 90.5v147q-166 -83 -512 -83q-349 0 -512 84v-148q0 -53 150 -90.5t362 -37.5z" />
<glyph unicode="&#xe309;" d="M2048 1161v-1417h-2048v1417l562 375h924zM256 1024h1536l-384 256h-768zM256 896v-384h1536v384h-1536zM512 768h-128v-128h128v128zM768 768h-128v-128h128v128zM1024 768h-128v-128h128v128zM1792 0v384h-1536v-384h1536zM512 256h-128v-128h128v128zM768 256h-128 v-128h128v128z" />
<glyph unicode="&#xe310;" d="M2048 905v-905h-2048v905l562 375h924zM256 768h1536l-384 256h-768zM1792 256v384h-1536v-384h1536zM384 512h128v-128h-128v128zM640 512h128v-128h-128v128z" />
<glyph unicode="&#xe311;" d="M2048 1664v-1920h-2048v1920h2048zM1792 1408h-1536v-256h1536v256zM1792 1024h-1536v-1024h1536v1024zM1024 128h-256v768h256v-768zM1664 512h-512v384h512v-384zM640 128h-256v512h256v-512zM1664 128h-512v256h512v-256z" />
<glyph unicode="&#xe312;" d="M640 1280h256v384h256v-384h256l-384 -512zM2048 649v-905h-2048v905l562 375h110l192 -256h-224l-384 -256h1536l-384 256h-224l192 256h110zM1792 384h-1536v-384h1536v384zM512 256h-128v-128h128v128zM768 256h-128v-128h128v128z" />
<glyph unicode="&#xe313;" d="M1773 470l-15 -58l129 -197l-64 -110l-236 14q-19 -23 -42 -42l14 -236l-110 -64l-197 129l-58 -15l-106 -211h-128l-106 211l-58 15l-197 -129l-110 64l14 236q-23 19 -42 42l-236 -14l-64 110l129 197l-15 58l-211 106v128l211 106l15 58l-129 197l64 110l236 -14 q19 23 42 42l-14 236l110 64l197 -129l58 15l106 211h128l106 -211l58 -15l197 129l110 -64l-14 -236q23 -19 42 -42l236 14l64 -110l-129 -197l15 -58l211 -106v-128zM1024 1216q-122 0 -231 -49l130 -225q52 18 101 18t101 -18l130 225q-109 49 -231 49zM812 878l-129 225 q-96 -71 -157 -174.5t-74 -224.5h258q20 101 102 174zM1338 704h258q-13 121 -74 224.5t-157 174.5l-129 -225q82 -73 102 -174zM1152 640q0 53 -37.5 90.5t-90.5 37.5t-90.5 -37.5t-37.5 -90.5t37.5 -90.5t90.5 -37.5t90.5 37.5t37.5 90.5zM710 576h-258q13 -121 74 -224.5 t157 -174.5l129 225q-82 73 -102 174zM1236 402l129 -225q96 71 157 174.5t74 224.5h-258q-20 -101 -102 -174zM1024 64q119 0 231 49l-130 225q-52 -18 -101 -18t-101 18l-130 -225q112 -49 231 -49z" />
<glyph unicode="&#xe314;" d="M704 -256l320 896h-384l256 896h512l-256 -640h384z" />
<glyph unicode="&#xe400;" d="M1280 320v-112l192 -128v-80h-896v80l192 128v112h-768v1344h2048v-1344h-768zM2032 336v1312h-2016v-1312h2016zM1024 1568q-14 0 -23 9t-9 23t9 23t23 9t23 -9t9 -23t-9 -23t-23 -9zM1024 1616q-16 0 -16 -16t16 -16t16 16t-16 16zM1952 448h-1856v1104h1856v-1104z M1936 1536h-1824v-1072h1824v1072zM1264 320h-480v-112h480v112zM1275 192h-502l-168 -112h838zM1456 64h-864v-48h864v48z" />
<glyph unicode="&#xe401;" d="M2048 160v-96l-128 -64h-1792l-128 64v96h192v1008h1664v-1008h192zM208 160h1632v992h-1632v-992zM1024 1072q-14 0 -23 9t-9 23t9 23t23 9t23 -9t9 -23t-9 -23t-23 -9zM1024 1120q-16 0 -16 -16t16 -16t16 16t-16 16zM1760 224h-1472v832h1472v-832zM1744 1040h-1440 v-800h1440v800zM2032 80v64h-748l-61 -30l-3 -2h-392l-3 2l-61 30h-748v-64h2016zM800 144l32 -16h384l32 16h-448zM2012 64h-1976l96 -48h1784z" />
<glyph unicode="&#xe402;" d="M1488 1104h560v-1024h-560v-80h-928v160h-560v736h560v544h928v-336zM1472 16v1408h-896v-1408h896zM1360 1248v-16h-720v16h720zM1488 960h544v128h-544v-128zM1520 992v64h16v-64h-16zM1552 992v64h16v-64h-16zM1584 992v64h16v-64h-16zM1632 992v64h208v-64h-208z M1264 1040q26 0 45 -19t19 -45t-19 -45t-45 -19t-45 19t-19 45t19 45t45 19zM1648 1040v-32h176v32h-176zM1888 1040q16 0 16 -16t-16 -16t-16 16t16 16zM1936 1040q16 0 16 -16t-16 -16t-16 16t16 16zM1984 1040q16 0 16 -16t-16 -16t-16 16t16 16zM1264 928q20 0 34 14 t14 34t-14 34t-34 14t-34 -14t-14 -34t14 -34t34 -14zM2032 816v128h-544v-128h544zM1536 912v-64h-16v64h16zM1568 912v-64h-16v64h16zM1600 912v-64h-16v64h16zM1840 912v-64h-208v64h208zM1824 864v32h-176v-32h176zM1888 864q-16 0 -16 16t16 16t16 -16t-16 -16z M1936 864q-16 0 -16 16t16 16t16 -16t-16 -16zM1984 864q-16 0 -16 16t16 16t16 -16t-16 -16zM16 880v-128h544v128h-544zM1328 816q0 -26 -19 -45t-45 -19t-45 19t-19 45t19 45t45 19t45 -19t19 -45zM1264 768q20 0 34 14t14 34t-14 34t-34 14t-34 -14t-14 -34t14 -34 t34 -14zM48 784v64h16v-64h-16zM80 784v64h16v-64h-16zM112 784v64h16v-64h-16zM160 784v64h208v-64h-208zM176 832v-32h176v32h-176zM416 832q16 0 16 -16t-16 -16t-16 16t16 16zM464 832q16 0 16 -16t-16 -16t-16 16t16 16zM512 832q16 0 16 -16t-16 -16t-16 16t16 16z M2032 672v128h-544v-128h544zM1536 768v-64h-16v64h16zM1568 768v-64h-16v64h16zM1600 768v-64h-16v64h16zM1840 768v-64h-208v64h208zM1824 720v32h-176v-32h176zM1888 720q-16 0 -16 16t16 16t16 -16t-16 -16zM1936 720q-16 0 -16 16t16 16t16 -16t-16 -16zM1984 720 q-16 0 -16 16t16 16t16 -16t-16 -16zM16 736v-128h544v128h-544zM48 640v64h16v-64h-16zM80 640v64h16v-64h-16zM112 640v64h16v-64h-16zM160 640v64h208v-64h-208zM176 688v-32h176v32h-176zM416 688q16 0 16 -16t-16 -16t-16 16t16 16zM464 688q16 0 16 -16t-16 -16 t-16 16t16 16zM512 688q16 0 16 -16t-16 -16t-16 16t16 16zM1296 656v-64h-64v64h64zM2032 528v128h-544v-128h544zM1280 608v32h-32v-32h32zM1536 624v-64h-16v64h16zM1568 624v-64h-16v64h16zM1600 624v-64h-16v64h16zM1840 624v-64h-208v64h208zM1824 576v32h-176v-32 h176zM1888 576q-16 0 -16 16t16 16t16 -16t-16 -16zM1936 576q-16 0 -16 16t16 16t16 -16t-16 -16zM1984 576q-16 0 -16 16t16 16t16 -16t-16 -16zM16 592v-128h544v128h-544zM48 496v64h16v-64h-16zM80 496v64h16v-64h-16zM112 496v64h16v-64h-16zM160 496v64h208v-64h-208 zM1296 560v-64h-64v64h64zM176 544v-32h176v32h-176zM416 544q16 0 16 -16t-16 -16t-16 16t16 16zM464 544q16 0 16 -16t-16 -16t-16 16t16 16zM512 544q16 0 16 -16t-16 -16t-16 16t16 16zM1280 512v32h-32v-32h32zM2032 384v128h-544v-128h544zM1536 480v-64h-16v64h16z M1568 480v-64h-16v64h16zM1600 480v-64h-16v64h16zM1840 480v-64h-208v64h208zM1232 400v64h64v-64h-64zM1824 432v32h-176v-32h176zM1888 432q-16 0 -16 16t16 16t16 -16t-16 -16zM1936 432q-16 0 -16 16t16 16t16 -16t-16 -16zM1984 432q-16 0 -16 16t16 16t16 -16 t-16 -16zM16 448v-128h544v128h-544zM1248 448v-32h32v32h-32zM48 352v64h16v-64h-16zM80 352v64h16v-64h-16zM112 352v64h16v-64h-16zM160 352v64h208v-64h-208zM176 400v-32h176v32h-176zM416 400q16 0 16 -16t-16 -16t-16 16t16 16zM464 400q16 0 16 -16t-16 -16t-16 16 t16 16zM512 400q16 0 16 -16t-16 -16t-16 16t16 16zM2032 240v128h-544v-128h544zM1536 336v-64h-16v64h16zM1568 336v-64h-16v64h16zM1600 336v-64h-16v64h16zM1840 336v-64h-208v64h208zM1824 288v32h-176v-32h176zM1888 288q-16 0 -16 16t16 16t16 -16t-16 -16zM1936 288 q-16 0 -16 16t16 16t16 -16t-16 -16zM1984 288q-16 0 -16 16t16 16t16 -16t-16 -16zM16 176h544v128h-544v-128zM640 288v16h768v-16h-768zM48 208v64h16v-64h-16zM80 208v64h16v-64h-16zM112 208v64h16v-64h-16zM160 208v64h208v-64h-208zM176 256v-32h176v32h-176z M416 256q16 0 16 -16t-16 -16t-16 16t16 16zM464 256q16 0 16 -16t-16 -16t-16 16t16 16zM512 256q16 0 16 -16t-16 -16t-16 16t16 16zM672 256q16 0 16 -16t-16 -16t-16 16t16 16zM736 256q16 0 16 -16t-16 -16t-16 16t16 16zM800 256q16 0 16 -16t-16 -16t-16 16t16 16z M864 256q16 0 16 -16t-16 -16t-16 16t16 16zM928 256q16 0 16 -16t-16 -16t-16 16t16 16zM992 256q16 0 16 -16t-16 -16t-16 16t16 16zM1056 256q16 0 16 -16t-16 -16t-16 16t16 16zM1120 256q16 0 16 -16t-16 -16t-16 16t16 16zM1184 256q16 0 16 -16t-16 -16t-16 16t16 16 zM1248 256q16 0 16 -16t-16 -16t-16 16t16 16zM1312 256q16 0 16 -16t-16 -16t-16 16t16 16zM1392 240q0 -16 -16 -16t-16 16t16 16t16 -16zM2032 96v128h-544v-128h544zM704 160q-16 0 -16 16t16 16t16 -16t-16 -16zM768 160q-16 0 -16 16t16 16t16 -16t-16 -16zM832 160 q-16 0 -16 16t16 16t16 -16t-16 -16zM896 160q-16 0 -16 16t16 16t16 -16t-16 -16zM960 160q-16 0 -16 16t16 16t16 -16t-16 -16zM1024 160q-16 0 -16 16t16 16t16 -16t-16 -16zM1088 160q-16 0 -16 16t16 16t16 -16t-16 -16zM1152 160q-16 0 -16 16t16 16t16 -16t-16 -16z M1216 160q-16 0 -16 16t16 16t16 -16t-16 -16zM1280 160q-16 0 -16 16t16 16t16 -16t-16 -16zM1344 160q-16 0 -16 16t16 16t16 -16t-16 -16zM1536 192v-64h-16v64h16zM1568 192v-64h-16v64h16zM1600 192v-64h-16v64h16zM1840 192v-64h-208v64h208zM1824 144v32h-176v-32 h176zM1888 144q-16 0 -16 16t16 16t16 -16t-16 -16zM1936 144q-16 0 -16 16t16 16t16 -16t-16 -16zM1984 144q-16 0 -16 16t16 16t16 -16t-16 -16zM640 112v16h768v-16h-768z" />
<glyph unicode="&#xe403;" d="M960 832l-118 35q-43 -35 -95 -35h-32l213 -64v-768l-640 192v640h-135q-64 0 -108.5 44.5t-44.5 108.5q0 63 44.5 108t108.5 45q14 0 29 -3q-2 16 -2 24q0 88 62.5 150t150.5 62q73 0 130 -44.5t75 -113.5q34 41 88 41q37 0 67 -21.5t42 -54.5l165 54l640 -208zM153 848 h594q55 0 94 39t39 94q0 41 -23 75t-62 49l-12 4l2 13q2 10 2 16q0 41 -29.5 70.5t-71.5 29.5q-46 0 -76 -35l-20 -23l-7 29q-17 65 -70 105.5t-120 40.5q-81 0 -139 -57.5t-58 -138.5q0 -8 2 -22l2 -22l-21 5q-18 2 -26 2q-57 0 -97 -40t-40 -97t40 -97t97 -40zM960 1215 l-160 -52q3 -12 3 -25q0 -6 -2 -18q43 -17 69 -54.5t26 -84.5q0 -58 -40 -101l104 -31l586 176zM1967 567q36 -15 58.5 -47t22.5 -72q0 -53 -37.5 -90.5t-90.5 -37.5h-288v-128l-640 -192v768l640 192v-179q58 -5 102 -42t59 -92q30 35 75 35q41 0 70.5 -29.5t29.5 -70.5 q0 -10 -1 -15zM1616 938l-608 -182v-734l608 182v734zM659 832h-355v-628l608 -182v734zM1632 336h288q46 0 79 33t33 79q0 34 -19.5 62.5t-51.5 41.5l-12 4l2 13q1 4 1 13q0 35 -24.5 59.5t-59.5 24.5q-37 0 -63 -29l-20 -24l-8 30q-13 50 -53 83.5t-92 38.5v-429z" />
<glyph unicode="&#xe404;" d="M1024 1664q209 0 398.5 -81t326.5 -218t218 -326.5t81 -398.5t-81 -398.5t-218 -326.5t-326.5 -218t-398.5 -81t-398.5 81t-326.5 218t-218 326.5t-81 398.5t81 398.5t218 326.5t326.5 218t398.5 81zM1024 1648q-205 0 -391.5 -80t-321.5 -215t-215 -321.5t-80 -391.5 t80 -391.5t215 -321.5t321.5 -215t391.5 -80t391.5 80t321.5 215t215 321.5t80 391.5t-80 391.5t-215 321.5t-321.5 215t-391.5 80zM1536 640l-768 -512v1024zM784 158l723 482l-723 482v-964z" />
<glyph unicode="&#xe405;" d="M1920 1024v-1072h64v-64h64v-272h-128l-128 128h-1536l-128 -128h-128v272h64v64h64v1072h-64v64h-64v144h447q-63 33 -63 96q0 48 39 80h-103l128 256h128l128 -256h-103q39 -32 39 -80q0 -63 -63 -96h1471v-144h-64v-64h-64zM678 1424l-112 224h-108l-112 -224h332z M400 1328q0 -40 33 -68t79 -28t79 28t33 68q0 51 -51 80h-122q-51 -29 -51 -80zM2032 1104v112h-2016v-112h2016zM1968 1040v48h-1888v-48h1888zM144 -48h64v1072h-64v-1072zM976 896v128h-752v-80h96v32h96v-80h144v80h96v-80h64v48h128v-64h32v16h96zM992 -48h64v1072h-64 v-1072zM1824 896v128h-752v-128h64v80h96v-96h32v16h80v80h96v-32h112v-48h64v48h128v-48h80zM1904 1024h-64v-1072h64v1072zM336 720h64v240h-64v-240zM576 720h64v240h-64v-240zM1152 720h64v240h-64v-240zM1360 720h64v240h-64v-240zM224 720h96v208h-96v-208zM736 720 h96v208h-96v-208zM1536 928h-96v-208h96v208zM1632 720h96v208h-96v-208zM416 720h64v160h-64v-160zM560 880h-64v-160h64v160zM656 720h64v160h-64v-160zM976 880h-80v-160h80v160zM1136 880h-64v-160h64v160zM1280 720h64v160h-64v-160zM1616 880h-64v-160h64v160z M1824 880h-80v-160h80v160zM848 720h32v144h-32v-144zM1264 864h-32v-144h32v144zM224 656h752v48h-752v-48zM1824 704h-752v-48h752v48zM224 640v-128h80v48h128v-48h64v48h112v32h96v-80h80v-16h32v96h96v-80h64v128h-752zM1824 336v304h-752v-304h564l-41 26l161 257 l68 -42l-151 -241h151zM1802 572l-41 25l-144 -230l41 -26zM624 336h64v240h-64v-240zM832 336h64v240h-64v-240zM320 336h96v208h-96v-208zM512 336h96v208h-96v-208zM224 336h80v160h-80v-160zM432 336h64v160h-64v-160zM704 336h64v160h-64v-160zM976 496h-64v-160h64 v160zM784 336h32v144h-32v-144zM224 272h752v48h-752v-48zM1824 320h-161v-1l-2 1h-589v-48h752v48zM224 256v-128h80v48h112v64h80v-128h320v96h96v-80h64v128h-752zM1824 128v128h-752v-80h112v-48h240v80h176v-32h112v-64h32v16h80zM432 -48h48v272h-48v-272zM832 -48h64 v240h-64v-240zM1440 -48h64v240h-64v-240zM1584 192h-64v-240h64v240zM320 -48h96v208h-96v-208zM1072 -48h96v208h-96v-208zM1600 -48h96v208h-96v-208zM224 -48h80v160h-80v-160zM912 -48h64v160h-64v-160zM1248 112h-63v-160h63v160zM1265 -48h63v160h-63v-160zM1424 112 h-80v-160h80v160zM1824 112h-64v-160h64v160zM496 -48h32v144h-32v-144zM544 -48h32v144h-32v-144zM592 -48h32v144h-32v-144zM640 -48h32v144h-32v-144zM688 -48h32v144h-32v-144zM736 -48h32v144h-32v-144zM784 -48h32v144h-32v-144zM1712 -48h32v144h-32v-144zM80 -64 v-48h1888v48h-1888zM16 -128v-240h105l124 123l4 5h1550l4 -5l124 -123h105v240h-2016z" />
<glyph unicode="&#xe406;" d="M1088 896h-64q-26 0 -45 37.5t-19 90.5t19 90.5t45 37.5h64q36 0 55 -64h48l-89 89q7 20 25 55l-1 2q-37 44 -43.5 95.5t10 94t48.5 75.5q33 33 75 50t93.5 10.5t96.5 -43.5l3 -2q32 17 55 25l267 -267q38 -38 -18 -130t-150.5 -169t-155.5 -77q-24 0 -38 14l-50 50h-176 q-19 -64 -55 -64zM1153 1487q-30 -30 -45.5 -68.5t-9.5 -84.5t38 -87q44 73 115 144.5t143 113.5q-41 33 -87.5 38.5t-85 -10t-68.5 -46.5zM1214 1088h74q28 -2 69 -41q25 -26 36 -50t1 -33q-4 -4 -13 -4h-39l38 -38q10 -10 27 -10q64 0 169 93.5t142 182.5q22 52 2 73 l-260 259q-94 -36 -198.5 -140t-140.5 -199zM1444 1475q3 -7 4 -12.5t-5.5 -18t-12.5 -22.5t-17 -24.5t-19.5 -24.5t-20.5 -23t-19 -20.5t-14.5 -15.5t-8.5 -9q-117 -117 -159 -117q-5 0 -11 4q-13 15 23 66q4 6 11 2q5 -5 2 -12q-12 -16 -18 -27t-6 -15v-3q5 -1 22.5 9.5 t52 38.5t72.5 66t65.5 72t37.5 51.5t9 23.5q-11 -1 -44 -24q-6 -5 -11 2q-5 5 2 11q52 37 65 22zM1024 1136q-18 0 -33 -33t-15 -79t15 -79t33 -33t33 33t15 79t-15 79t-33 33zM1129 1078q-15 58 -41 58h-34q34 -37 34 -112t-34 -112h34q26 0 41 58q2 5 4 15q0 1 0.5 4 t0.5 5q2 20 2 30t-2 30q0 2 -0.5 5t-0.5 4q-2 10 -4 15zM770 1107q-8 0 -8 8t8 8q22 0 32 -1q8 0 8 -9q0 -7 -9 -7q-10 1 -31 1zM707 1103l-30 -6l-2 -1q-6 0 -8 6q-2 8 6 10q10 3 32 7q7 0 9 -7q2 -9 -7 -9zM863 1097q-8 2 -6 9q2 8 10 6q9 -2 16.5 -4t11.5 -3l4 -1 q7 -3 5 -11q-3 -5 -8 -5h-3q0 1 -30 9zM586 1060q-5 0 -6 4q-5 5 2 11l29 15q7 4 11 -4t-4 -10q-3 -2 -8.5 -5t-10 -5.5t-8.5 -4.5q-2 -1 -5 -1zM1000 1056q-8 0 -8 16t8 16t8 -16t-8 -16zM1024 1056q-8 0 -8 16t8 16t8 -16t-8 -16zM1048 1056q-8 0 -8 16t8 16t8 -16t-8 -16 zM761 1072q0 7 7 9q22 2 33 2q8 0 8 -8t-8 -8q-11 0 -31 -2zM863 1063q-8 0 -6 9q0 8 9 6l32 -6q8 -3 6 -10q-2 -6 -8 -6h-2q-12 4 -31 7zM1287 1072h-140q1 -1 1 -3q4 -28 4 -45t-4 -45q0 -2 -1 -3h237q0 3 -3 10t-12.5 21t-23.5 28q-34 35 -58 37zM680 1041h-4q-5 0 -7 5 q-3 6 4 10l31 12q8 2 10 -6q2 -7 -5 -10q-20 -6 -29 -11zM864 1028q-8 0 -8 8q2 8 9 8q9 0 17 -1t12 -2l4 -1q8 -2 6 -10q-2 -6 -8 -6h-2q-11 3 -30 4zM802 1025l-31 -6q-1 0 -1 -0.5t-1 -0.5q-6 0 -8 6q-2 8 6 10q10 3 32 7q9 2 9 -7q2 -7 -6 -9zM1000 1008q-8 0 -8 16 t8 16t8 -16t-8 -16zM1024 1008q-8 0 -8 16t8 16t8 -16t-8 -16zM1048 1008q-8 0 -8 16t8 16t8 -16t-8 -16zM513 999q-2 0 -6 2q-5 5 0 11q11 12 23 23q6 5 11 0t0 -11l-22 -22q-3 -3 -6 -3zM591 1003q7 7 25 21q8 4 11 -2q5 -7 -1 -11q-9 -6 -25 -20q-2 -2 -5 -2t-6 3 q-6 6 1 11zM706 1010q8 4 11 -3q4 -7 -4 -11q-18 -10 -26 -16q-4 -2 -5 -2q-4 0 -6 4q-5 7 2 11q18 12 28 17zM856 999q0 9 7 9h34q7 -2 7 -9q-2 -7 -9 -7q-12 1 -30 0zM772 966q-5 0 -7 5q-3 7 3 11q27 11 31 12q8 4 10 -5q2 -7 -5 -10q-14 -4 -28 -12q-1 0 -2 -1h-2z M1000 992q8 0 8 -16t-8 -16t-8 16t8 16zM1024 960q-8 0 -8 16t8 16t8 -16t-8 -16zM1048 960q-8 0 -8 16t8 16t8 -16t-8 -16zM904 968q0 -8 -8 -8q-11 0 -29 -6h-3q-6 0 -7 6q-2 7 5 10q20 6 34 6zM458 921h-4q-6 5 -3 11q6 12 16 28q5 7 11 3q7 -5 3 -11q-6 -9 -16 -27 q-1 -4 -7 -4zM530 917q-6 6 -2 11q9 15 18 27q4 6 12 2q6 -6 1 -12q-12 -16 -18 -25q-1 -4 -6 -4q-3 0 -5 1zM607 925q7 9 21 25q5 5 12 0q6 -6 0 -11q-6 -6 -20 -24q-2 -3 -6 -3q-3 0 -5 2q-6 3 -2 11zM690 922q8 9 24 23q6 6 11 -1q5 -5 -1 -11q-12 -10 -22 -22 q-4 -2 -6 -2t-6 2q-6 5 0 11zM802 942q8 4 11 -3q5 -5 -2 -11q-15 -10 -25 -18q-2 -2 -5 -2q-5 0 -6 3q-6 6 1 11q13 11 26 20zM418 833q-9 2 -5 10q5 16 11 30q2 9 10 5q7 -3 5 -10q-8 -20 -11 -30q-2 -6 -8 -6q-1 1 -2 1zM716 836q-7 3 -3 11l18 27q5 6 11 2q7 -5 2 -12 q-12 -16 -17 -25q-3 -4 -7 -4q-3 0 -4 1zM493 830h-3q-7 3 -5 11l12 30q4 8 11 4q8 -4 4 -11l-12 -29q-2 -5 -7 -5zM563 830q-8 2 -4 10q4 10 14 30q3 7 11 3q7 -3 3 -11q-6 -12 -13 -28q-3 -5 -8 -5q-2 0 -3 1zM638 831q-7 3 -3 11q8 16 16 28q3 7 11 3q7 -5 2 -11l-15 -27 q-2 -5 -7 -5q-3 0 -4 1zM684 788q3 7 11 5q8 -4 4 -11q-4 -9 -10 -29q-3 -6 -8 -6q-2 0 -3 1q-7 2 -5 10q2 4 5.5 14.5t5.5 15.5zM388 749q2 8 7 32q2 8 10 6t6 -10q-1 -4 -3.5 -14.5t-3.5 -16.5q-2 -6 -8 -6zM620 787q7 -3 5 -10q-9 -28 -9 -31q-2 -5 -8 -5h-2q-8 2 -6 10 q5 19 10 31q2 7 10 5zM474 744q-2 -6 -8 -6h-2q-8 2 -6 10q2 5 4 15.5t4 15.5q2 8 10 6q7 -2 5 -10q-1 -4 -3.5 -14.5t-3.5 -16.5zM535 738q-8 2 -6 10q2 11 8 31q2 8 10 6q8 -4 5 -10q-1 -6 -8 -31q-2 -6 -9 -6zM651 663l6 32q2 8 9 6q7 -1 7 -9q-1 -3 -6 -31q-2 -7 -9 -7 q-9 2 -7 9zM588 647q-9 0 -7 9l5 32q2 8 9 6q9 -2 7 -9q-4 -19 -5 -31q-2 -7 -9 -7zM375 654l3 32q2 9 9 7q9 -2 7 -9l-3 -32q-2 -7 -8 -7zM516 685q2 8 9 6q9 0 7 -9t-4 -31q-2 -7 -8 -7h-1q-9 0 -7 9q0 5 2 16t2 16zM443 652q1 6 2.5 16.5t1.5 15.5q1 7 9 7q7 -2 7 -9 q-2 -10 -4 -32q0 -7 -8 -7zM1392 0v304h-304v16h304v320h16v-320h320v-16h-320v-304h-16zM652 607q9 -2 7 -9q0 -10 -2 -32q0 -7 -8 -7t-8 8q2 22 2 32q2 8 9 8zM575 592q0 7 8 7t8 -8q-2 -22 -2 -32q0 -8 -8 -8t-8 9q0 10 2 32zM369 557q0 22 1 33q0 7 8 7t8 -8 q-1 -11 -1 -32q0 -8 -8 -8zM506 588q0 10 9 8q7 0 7 -9q0 -5 -0.5 -15t-0.5 -16q0 -8 -8 -8h-1q-7 0 -7 8q0 6 0.5 16.5t0.5 15.5zM437 556q0 22 1 32q0 8 8 8q8 -2 8 -9q-1 -10 -1 -32q0 -7 -8 -7h-1q-7 0 -7 8zM408 286q0 46 26 72t78 26t78 -26t26 -72q0 -53 -26 -108.5 t-52 -84.5l-26 -29q-4 4 -11 11.5t-25 32t-32 49t-25 60.5t-11 69zM512 368q-88 0 -88 -82q0 -96 88 -198q88 102 88 198q0 82 -88 82zM2048 -176v-16h-2048v16h2048zM384 -304h256v-16h-256v16z" />
<glyph unicode="&#xe407;" d="M378 731q-38 0 -75.5 28.5t-54.5 88.5q34 7 64 7q66 0 95 -31t18 -67l179 -90l11 189l-136 99q-14 -7 -32 -7q-38 0 -75.5 28t-54.5 89q36 6 64 6q68 0 97 -32t15 -69l125 -63l15 253q-20 5 -33.5 21t-17.5 40.5t11 61t49 75.5q32 -33 44.5 -69t6.5 -63t-19 -45.5 t-27 -21.5l11 -188l126 63q-14 36 14.5 68.5t97.5 32.5q28 0 63 -6q-17 -61 -54 -89t-75 -28q-18 0 -32 7l-137 -99l12 -208l180 90q-12 36 17 66.5t96 30.5q28 0 63 -6q-17 -60 -54 -88.5t-75 -28.5q-26 0 -39 11l-185 -123l28 -472q0 -26 -19 -45t-45 -19t-45 19t-19 45 l25 427l-185 123q-13 -11 -38 -11zM602 1205q9 -22 32 -29l6 104l6 -105q15 8 24 30q28 63 -27 129q-61 -77 -41 -129zM803 1083q-12 -20 -4 -42l94 47l-79 -57q6 -3 16 -3q31 0 61 21.5t47 66.5q-22 3 -42 3q-70 0 -93 -36zM447 964q9 0 16 3l-79 57l94 -47q8 23 -5 42 q-22 36 -92 36q-21 0 -43 -3q17 -45 47 -66.5t62 -21.5zM525 689l85 -57l8 -5l-1 -9l-25 -427q0 -19 14.5 -33t33.5 -14q20 0 34 14t14 34l-28 471v9l7 5l85 56l-93 -46l-2 24l-12 208v9l7 5l74 54l-61 -31l-21 -10l-2 24l-2 37l-6 -101l-1 -24l-82 41l73 -54l8 -5l-1 -9 l-11 -189l-1 -24zM873 847q-10 -16 -5 -38l107 54l-99 -66q8 -5 24 -5q32 0 61.5 21.5t46.5 66.5q-22 3 -42 3q-70 0 -93 -36zM312 839q-13 0 -43 -4q17 -45 47 -66.5t62 -21.5q10 0 23 5l-98 66l106 -54q7 22 -5 39q-23 36 -92 36zM1394 -6l-256 256l12 12l242 -243v621h16 v-621l242 243l12 -12l-262 -261zM2048 -176v-16h-2048v16h2048zM256 -304h768v-16h-768v16z" />
<glyph unicode="&#xe408;" d="M1664 624h-640v-624h-16v624h-624v16h624v640h16v-640h640v-16z" />
<glyph unicode="&#xe409;" d="M1664 1280v-1280h-1280v512h16v-496h1248v1248h-1248v-496h-16v512h1280zM1261 624h-1133v16h1133l-371 370l12 12l389 -390l-389 -390l-12 12z" />
<glyph unicode="&#xe410;" d="M1024 1408q209 0 385.5 -103t279.5 -279.5t103 -385.5t-103 -385.5t-279.5 -279.5t-385.5 -103t-385.5 103t-279.5 279.5t-103 385.5t103 385.5t279.5 279.5t385.5 103zM1024 -112q153 0 292 59.5t240 160.5t160.5 240t59.5 292t-59.5 292t-160.5 240t-240 160.5 t-292 59.5t-292 -59.5t-240 -160.5t-160.5 -240t-59.5 -292t59.5 -292t160.5 -240t240 -160.5t292 -59.5zM1466 902l12 -12l-518 -517l-6 5l-256 256l12 12l250 -251z" />
<glyph unicode="&#xe411;" d="M1919 828l-133 -199l-7 5l-256 192l10 12l242 -181q-3 150 -64 286t-161 234.5t-237.5 156.5t-288.5 58q-240 0 -433 -138t-273 -358h-17q80 227 278 369.5t445 142.5q153 0 293 -58.5t242 -158t164.5 -237t67.5 -289.5l114 171zM1024 -112q240 0 433 138t273 358h17 q-80 -227 -278 -369.5t-445 -142.5q-153 0 -293 58.5t-242 158t-164.5 237t-67.5 289.5l-114 -171l-14 8l133 200l7 -6l256 -192l-10 -12l-242 181q3 -150 64 -286t161 -234.5t237.5 -156.5t288.5 -58z" />
<glyph unicode="&#xe412;" d="M1024 1408q209 0 385.5 -103t279.5 -279.5t103 -385.5t-103 -385.5t-279.5 -279.5t-385.5 -103t-385.5 103t-279.5 279.5t-103 385.5t103 385.5t279.5 279.5t385.5 103zM1024 -112q153 0 292 59.5t240 160.5t160.5 240t59.5 292t-59.5 292t-160.5 240t-240 160.5 t-292 59.5t-292 -59.5t-240 -160.5t-160.5 -240t-59.5 -292t59.5 -292t160.5 -240t240 -160.5t292 -59.5zM1286 890l-251 -250l251 -250l-12 -12l-250 251l-250 -251l-12 12l251 250l-251 250l12 12l250 -251l250 251z" />
<glyph unicode="&#xe413;" d="M1935 -8h-1822l911 1431zM143 8h1762l-881 1385zM1088 1024v-640h-128v640h128zM1072 1008h-96v-608h96v608zM1024 256q26 0 45 -19t19 -45t-19 -45t-45 -19t-45 19t-19 45t19 45t45 19zM1024 144q20 0 34 14t14 34t-14 34t-34 14t-34 -14t-14 -34t14 -34t34 -14z" />
<glyph unicode="&#xe414;" d="M898 1232q167 0 297 -101.5t172 -258.5q80 93 202 93q110 0 188 -78t78 -188q0 -14 -4 -42q97 -37 157 -123.5t60 -193.5q0 -141 -99.5 -240.5t-240.5 -99.5h-1358q-145 0 -247.5 102.5t-102.5 247.5t102.5 247t247.5 102q33 0 65 -6q-3 27 -3 53q0 99 38.5 189 t103.5 155t155 103.5t189 38.5zM898 1216q-194 0 -332 -138t-138 -332q0 -26 3 -51l3 -22l-22 4q-30 6 -62 6q-138 0 -236 -97.5t-98 -235.5t98 -236t236 -98h1358q134 0 229 95t95 229q0 101 -56.5 183.5t-150.5 119.5l-12 4l2 13q4 20 4 39q0 103 -73.5 176.5t-176.5 73.5 q-115 0 -190 -88l-20 -23l-8 30q-40 154 -167 251t-286 97z" />
<glyph unicode="&#xe500;" d="M1024 1024l-768 256l768 256l768 -256zM960 896l-768 256v-1024l768 -256v1024zM1856 1152l-768 -256v-1024l768 256v1024z" />
<glyph unicode="&#xe501;" d="M1024 1600q182 0 348 -71t286 -191t191 -286t71 -348t-71 -348t-191 -286t-286 -191t-348 -71t-348 71t-286 191t-191 286t-71 348t71 348t191 286t286 191t348 71zM1225 1291q-25 -43 -12 -90.5t56 -72.5t90.5 -12t72.5 56t12 90.5t-56 72.5t-90.5 12t-72.5 -56z M1372 735l170 2q-12 199 -154 338q-73 -29 -143 11q-69 39 -82 119q-70 19 -139 19q-120 0 -230 -54l83 -149q69 32 147 32q137 0 236.5 -92t111.5 -226zM521 574q49 -191 215 -302l87 146q-69 48 -108.5 123.5t-39.5 162.5t39.5 162.5t108.5 123.5l-87 146 q-166 -111 -215 -302q62 -51 62 -130t-62 -130zM415 584q49 0 84 35t35 85t-35 85t-84 35t-84.5 -35t-35.5 -85t35.5 -85t84.5 -35zM1388 333q142 139 154 338l-170 2q-12 -135 -111.5 -226.5t-236.5 -91.5q-78 0 -147 32l-83 -149q110 -54 230 -54q69 0 139 19 q13 80 82 119q70 40 143 11zM1388 73q43 25 56 72.5t-12 90.5t-72.5 56t-90.5 -12t-56 -72.5t12 -90.5t72.5 -56t90.5 12z" />
<glyph unicode="&#xe502;" d="M1294 1358q29 75 29 136q0 4 -0.5 10t-0.5 10q-1 3 -2.5 11t-2.5 11q-176 -41 -250 -148q-75 -108 -78 -257q67 6 104 17q54 18 108 72q63 63 93 138zM1576 71q84 125 123 250q-89 27 -158 126t-69 223q0 113 65 207q35 51 114 118q-52 64 -104 100q-94 65 -213 65 q-71 0 -173 -34q-98 -34 -143 -34q-34 0 -138 30q-105 30 -177 30q-171 0 -284 -144q-113 -146 -113 -374q0 -242 147 -503q149 -259 301 -259q51 0 132 34q81 33 142 33q65 0 151 -32q91 -32 140 -32q128 0 257 196z" />
<glyph unicode="&#xe503;" d="M1580 -126q7 4 25 12t30 14t29.5 15.5t27.5 17.5t21.5 18.5t14.5 20t2.5 20.5t-11 22.5t-28.5 22.5q-3 2 -15.5 9t-20 12t-19.5 17.5t-19 26.5t-13.5 37.5t-7.5 52.5q-13 -11 -14.5 -43.5t14 -67t46.5 -45.5q30 -10 48 -22t22.5 -26.5t-17.5 -31.5t-71 -34 q-67 -23 -95.5 -39t-83.5 -62q-37 -31 -79 -33t-68 31t-17 93q17 118 -1 181q-15 53 -6 90q8 39 25.5 45.5t38.5 -27.5q2 -5 8.5 -18.5t10.5 -19t12.5 -14t21 -12.5t29.5 -5q32 -1 57 12.5t37.5 31.5t25 33.5t21.5 17.5q10 2 18 20t11 51t-4 79q-14 82 -55 178t-93 151 q-92 98 -123 202q-34 110 -28 199q4 64 -28 137.5t-85 112.5q-33 24 -82.5 38t-98.5 13q-59 0 -96 -20q-74 -40 -98.5 -97t-22.5 -140q4 -184 15 -288q-13 -48 -115 -181q-19 -19 -36.5 -50.5t-27.5 -56.5t-27.5 -72.5l-24.5 -66.5q-7 -17 -20.5 -39.5t-22 -43.5t-9.5 -48 q-3 -52 11 -51l5 2q43 33 98 -29.5t163 -232.5q13 -21 23.5 -46.5t18.5 -62.5t-11.5 -64t-68.5 -34q-21 -3 -51 3.5t-77 21t-69 20.5q-34 8 -93 19.5t-77 16.5q-32 9 -35 24q-3 13 13 45t16 46q1 10 -1 20t-4 16t-7.5 17t-7.5 16q-17 38 -5 53q7 12 40 9q48 -4 77 14 q50 31 30 99q0 -32 -11 -48t-40 -32q-16 -9 -56 -11t-52 -13q-10 -8 -10.5 -25t4.5 -34t9.5 -39.5t3.5 -37.5q-1 -10 -17 -50.5t-6 -61.5q5 -10 16.5 -18t31 -13.5t36 -9t46.5 -8.5t47 -9q58 -12 135 -39.5t104 -28.5q26 -1 49.5 10.5t40.5 26.5t50 27.5t74 13.5 q18 1 53.5 2.5t52.5 1.5q80 0 121 -1q28 -1 44 -9t20.5 -18t15 -23t27.5 -22q35 -16 82.5 -13.5t63.5 17.5q80 77 149 112zM1147 1299q2 -2 8 -5.5t8.5 -6t2.5 -4.5q-2 -5 -8.5 -7t-14 -2t-8.5 -1q-7 -2 -14 -8t-9.5 -8t-7.5 0q-3 5 -2.5 7.5t5 8.5t5.5 10q2 5 0.5 11.5 t1 12t10.5 6.5q9 0 23 -14zM1424 322q51 -20 51 -39q-20 16 -56 21t-67 -9.5t-32 -49.5q-33 0 -47 -16q-20 -24 -21 -65.5t6.5 -90.5t6.5 -68q-2 -29 -12.5 -82t-13.5 -73q-19 1 -22 14t5 35q20 63 21 85q2 43 -9 49t-32 -28q-41 -68 -164 -81q-112 -14 -154 33 q-9 7 -18.5 3t-12.5 -9q-1 -2 1.5 -5.5t9 -11t10.5 -15.5q34 -64 -7 -85q0 43 -6.5 66t-25.5 49.5t-27 41.5q28 3 42.5 21t12.5 39.5t-16 35.5q-8 8 -86.5 71t-96.5 85q-3 3 -22 18t-24 26q-42 95 -9 154q6 10 6 1q0 -5 -1 -13q-15 -70 17 -123q19 -32 33 -22q4 2 6 9 q5 15 5 54.5t2 64.5q7 53 43.5 131t58.5 83q-16 27 -10.5 58.5t19.5 53.5t27.5 51.5t13.5 52.5q0 22 14 2q4 -5 13 -18q36 -52 56 -63t45 1t62 40t63 41q45 23 44 31q-2 9 -8 10.5t-16 -2.5t-22.5 -11t-28 -16t-31 -16.5t-33.5 -13t-34 -6.5q-38 -1 -62 21q-20 19 -13 20 q2 0 13 -2q40 -6 66 -1q27 5 65 22q11 4 43.5 18t51.5 20q11 2 15.5 8t3 11.5t-6.5 7.5q-10 6 -19 -7q-5 -8 -19.5 -16t-27 -12.5t-31.5 -10t-22 -6.5q-51 -15 -95 -13q-20 0 -32.5 5.5t-17.5 12t-14.5 17t-23.5 18.5q-20 12 8 42l19 11q18 11 25 23q20 20 29 26q1 4 1.5 21 t-8.5 36.5t-26 19.5q-21 1 -30.5 -13t-8.5 -35q1 -17 8.5 -30.5t14.5 -13.5q13 1 4 -11q-6 -8 -13 -10t-14.5 12.5t-11.5 35t-3 34.5q2 30 15.5 56t38.5 25t41 -31.5t15 -83.5q3 -6 14.5 -4.5t31 0t27.5 -9.5q2 -2 2 2q0 2 -1 10q-15 102 57 122q11 3 25 4q15 -3 25 -7 t21.5 -13.5t19.5 -28.5t13 -47q-1 -1 -0.5 -34t-11.5 -33q-19 -7 -28 0t2 25q9 23 -4 53.5t-47 27.5q-24 -1 -34 -24.5t-7.5 -47t10.5 -24.5q6 -1 33.5 -15t41.5 -17q36 -7 41 -23t-4.5 -46t-5.5 -50q4 -24 19.5 -43t36 -59t36.5 -113q1 -1 7 -6.5t12.5 -13.5t14.5 -23 t17.5 -42.5t18.5 -64.5q10 -43 10.5 -99.5t7.5 -77t36 -17.5q36 3 46 39q30 108 -50 259q-29 55 -53 77q32 -19 66.5 -70t44.5 -96q1 -6 5 -24.5t5 -23t3.5 -19.5t2.5 -20t0.5 -18t-0.5 -21l-2.5 -20t-4.5 -24t-7 -26zM1093 1099q2 1 7.5 -2.5t10.5 -12t5 -18.5q-1 -4 -9 -4 q-4 26 -17 28q-8 3 -4 7zM879 1093q6 -2 11 -14t2 -28q0 -2 -3 -2q-10 0 -7 18q3 14 -7 14q-2 -1 -4 3q-3 10 6 9h2zM980 1023q9 3 16 -4t11 -6q8 3 2 10q-9 10 -29 0zM904 1008q4 0 8 8.5t15 9.5q-24 2 -27 -12q0 -5 4 -6zM1250 889q5 -3 13.5 -5t12.5 -5t5 -11 q2 -10 -3 -18.5t-13 -7.5q-17 4 -37 30t-6 40q3 3 5.5 0t9 -11t13.5 -12zM666 590q2 3 4 8t3 8.5t2 6t2.5 4t3.5 0.5l3 -1.5t1 -2v-3t-0.5 -4t-1.5 -4.5t-2 -5.5t-2 -6.5q-4 -9 -11.5 -16.5t-11.5 -6.5q-8 1 0 10t10 13z" />
<glyph unicode="&#xe504;" d="M1792 1472l-907 -125v-669h907v794zM810 1337l-682 -94v-565h682v659zM810 594h-682v-557l682 -94v651zM1792 594h-907v-661l907 -125v786z" />
<glyph unicode="&#xe505;" d="M1243 -165q1 -2 9.5 -0.5t21.5 5.5t22 8q16 8 60 52q47 46 89 62q27 11 35.5 17.5t10.5 19.5t8.5 19t23.5 11q86 29 191 15q4 0 10 -1q39 -5 50 3t38 64l8 16q48 97 68.5 188t20.5 205q0 115 -21 206.5t-71 193.5q-90 182 -254.5 307t-371.5 169q-61 13 -175 13t-177 -14 q-165 -35 -308 -128q-309 -201 -390 -570q-13 -58 -13 -177q0 -86 5.5 -130t24.5 -113l11 -40h48q88 0 151 29q30 13 57 13q19 0 30 -7t37 -36q25 -27 38 -35.5t32 -11.5q39 -5 49 14q9 16 -18 29q-22 11 -54 60t-32 71q0 53 41 71.5t86 -13.5q21 -15 42 -50q23 -35 40 -35 q16 0 21 7q8 12 24.5 1.5t55.5 -49.5q62 -64 108 -78t140 2q49 9 64.5 9t35.5 -8q21 -8 30 -8t32 8q33 12 63 4q55 -15 102 2q30 11 34 7t-11 -55q-15 -46 -19 -86q-3 -33 -33 -77q-120 -174 -120 -179zM1413 296q-61 -10 -145 -10t-149 10q-191 28 -401.5 123t-326.5 206 q-80 76 -83.5 134t69.5 93q22 10 45.5 14t82.5 6l93 3l-4 -35q-4 -32 6.5 -55t41.5 -49q45 -38 161 -84t200 -62.5t98 3.5q0 8 -13 21q-16 15 -43 87q-9 23 -25 33q-29 20 -181 54q-60 14 -114 39t-73 47q-18 21 -17.5 57t21.5 119q19 78 33.5 106t44.5 43q24 13 48.5 13 t168.5 -10q59 -5 120 11q123 31 200 -11q23 -13 37.5 -27.5t34.5 -46.5q45 -69 89.5 -189.5t44.5 -172.5q0 -26 -22 -65q-9 -18 -13.5 -29t-2.5 -11q11 0 34.5 21t33.5 41q16 30 28 30q19 0 68.5 -22t74.5 -41q52 -39 64.5 -94t-16.5 -116q-71 -147 -313 -184zM1149 1091 q53 -4 93.5 13.5t31.5 40.5q-5 14 -29.5 24.5t-57.5 13.5q-32 3 -76 -4.5t-49 -16.5q-3 -5 4 -4q4 0 13 2q18 4 50 0t44 -11q7 -5 5.5 -12t-11 -14.5t-22.5 -11.5q-15 -4 -19.5 -8t1.5 -7.5t22 -4.5zM751 980q28 -28 42 -33.5t25 7.5q17 21 112 31q47 5 60 11.5t8 20.5 q-11 30 -123 24q-52 -4 -70.5 0.5t-41.5 27.5q-16 16 -31 4.5t-15 -37.5q0 -21 34 -56zM1124 52q24 -15 40 -15q17 0 37.5 21.5t20.5 38.5q0 32 -25 4q-23 -25 -60 -3q-17 10 -40 10t-31 -10q-9 -11 -3.5 -21.5t20.5 -10.5q17 0 41 -14zM1878 109q17 0 29.5 -12.5 t12.5 -29.5t-12.5 -29.5t-29.5 -12.5t-29.5 12.5t-12.5 29.5t12.5 29.5t29.5 12.5zM1878 100q-14 0 -23.5 -10t-9.5 -23q0 -14 9.5 -23.5t23.5 -9.5t23.5 9.5t9.5 23.5q0 13 -9.5 23t-23.5 10zM1865 47v18h7q2 0 3 -1q1 0 2 -1q1 0 3 -2l4 -6l5 -8h7l-7 11l-5 5l-1 1l-2 1 q7 2 9 4t2 7q0 4 -1 6t-5 4q-2 1 -8 1h-18v-40h5zM1865 83h13q3 0 7 -2q2 -2 2 -5q0 -2 -1 -3l-3 -3q-1 0 -3 -0.5t-3 -0.5h-12v14z" />
<glyph unicode="&#xf000;" d="M1695 934q34 -128 16 -256.5t-84 -241.5q-89 -151 -241.5 -238.5t-327.5 -87.5q-178 0 -332 89q-110 65 -186 163.5t-111 215.5l17 19q-17 58 -22 125l-93 -51l12 541l157 -95q90 143 240 226t319 83q176 0 331 -89q115 -68 193.5 -171.5t111.5 -231.5zM1470 527 q100 172 51 362q-25 92 -82 167t-140 123q-111 66 -240 66q-123 0 -231 -59.5t-172 -163.5l150 -91l-223 -122l-22 -13q-3 -49 2 -86l20 20q9 -115 70 -214.5t165 -160.5q110 -64 240 -64q127 0 237.5 63t174.5 173zM1211 581l-113 108q-28 -18 -57 -18q-41 0 -70.5 29 t-29.5 71q0 35 23.5 62t57.5 34v252h37v-252q35 -8 57.5 -34.5t22.5 -61.5q0 -31 -15 -55l114 -106z" />
<glyph unicode="&#xf001;" d="M1081 1140v-280q-21 8 -40 8q-22 0 -41 -8v280h81zM402 709l181 100q-3 -41 0 -79l-154 -154q-22 77 -27 133zM1213 550l-135 129q40 16 56 59l135 -128z" />
<glyph unicode="&#xf002;" d="M1779 300q8 -65 -39.5 -112.5t-114.5 -40.5q-48 5 -84 40.5t-41 84.5q-4 40 14 76t50 57l-295 647q-28 -6 -43 -6q-20 0 -33 5l-169 -409q32 -18 51.5 -50.5t19.5 -69.5q0 -58 -41 -99t-100 -41q-58 0 -99 41t-41 99q0 46 30 86l-81 83q-35 -27 -82 -27q-32 0 -56 10 l-129 -213q53 -41 53 -108q0 -58 -41 -99t-99 -41q-59 0 -100 41t-41 99t41 99t100 41q26 0 55 -12l129 213q-53 41 -53 108q0 58 41 99t100 41q58 0 99 -41t41 -99q0 -51 -31 -86l81 -83q35 27 83 27q24 0 36 -3l167 407q-32 19 -51.5 51.5t-19.5 70.5q0 58 41.5 99 t98.5 41q58 0 99.5 -41t41.5 -99q0 -76 -65 -119l298 -647q27 8 54 5q50 -5 85.5 -40.5t39.5 -84.5z" />
<glyph unicode="&#xf003;" d="M1319 1080l302 -655q-41 -6 -74 -34l-301 656q39 4 73 33zM967 660l171 417q34 -29 76 -30l-172 -418q-35 28 -75 31zM803 734l87 -90q-36 -15 -60 -55l-86 89q38 18 59 56zM442 487l135 222q26 -32 69 -43l-133 -221q-32 33 -71 42z" />
<glyph unicode="&#xf004;" d="M1021 1366h6q167 0 286.5 -119t119.5 -286v-436q0 -68 -25 -141q-59 -98 -160.5 -156t-218.5 -58h-10q-117 0 -218.5 58t-160.5 156q-25 69 -25 141v436q0 167 119.5 286t286.5 119zM172 890q-77 21 -117.5 91t-20.5 147l73 -19q-14 -48 11 -91t73 -56t92 12t57 73 t-12.5 92t-73.5 56l18 71q78 -21 118.5 -90.5t20.5 -147.5q-22 -77 -91.5 -117.5t-147.5 -20.5zM1876 890q77 21 117.5 91t20.5 147l-73 -19q14 -48 -11 -91t-73 -56t-92 12t-57 73t12.5 92t73.5 56l-20 71q-77 -21 -117 -91t-20 -147q22 -77 91.5 -117.5t147.5 -20.5z M1027 788q86 0 146.5 60t60.5 145t-61 145.5t-146 60.5t-144.5 -60.5t-59.5 -145.5t59.5 -145t144.5 -60z" />
<glyph unicode="&#xf005;" d="M1151 991q0 53 -37.5 90t-89.5 37q-53 0 -90 -37t-37 -90t37 -89.5t90 -36.5q52 0 89.5 36.5t37.5 89.5zM461 726q59 -41 154 -44v-130q-134 3 -228 69q-30 22 -54 47.5t-38.5 47t-27.5 53.5t-19 51t-16 55q0 2 -4 8q69 3 122 48l7 -22q20 -73 39 -111.5t65 -71.5z M1691 909l7 22q53 -45 122 -48q-1 -1 -2 -4t-2 -4q-11 -42 -20 -68.5t-26 -62.5t-44 -66t-65 -57q-94 -66 -228 -69v130q95 3 154 44q46 33 65 71.5t39 111.5zM1019 177h10q121 0 223.5 60.5t160.5 162.5q-40 -123 -146 -201.5t-240 -78.5h-6q-133 0 -239.5 78.5 t-146.5 201.5q58 -102 160.5 -162.5t223.5 -60.5z" />
<glyph unicode="&#xf006;" d="M1919 1024h129q0 -62 -36.5 -111.5t-93.5 -69.5q0 -2 1 -5.5t1 -5.5q0 -99 -46.5 -183t-126.5 -136q-25 -58 -83 -83v-46l128 -320h-197q80 -42 93 -144q5 -44 -10 -92t-28.5 -70.5t-19.5 -28.5l-28 -38v47q0 41 -13 79q-5 -40 -23 -83.5t-28.5 -60.5t-17.5 -26l-13 -18 l-13 18q-7 9 -17.5 25.5t-28.5 59t-23 82.5q-10 -34 -13 -76l-2 -45l-27 36q-9 12 -21 32.5t-25.5 76t-3.5 106.5q5 26 13 42q-141 -114 -322 -114t-322 114q8 -16 13 -42q10 -51 -3.5 -106.5t-25.5 -76t-21 -32.5l-27 -36l-2 45q-3 42 -13 76q-5 -40 -23 -82.5t-28.5 -59 t-17.5 -25.5l-13 -18l-13 18q-7 9 -17.5 26t-28.5 60.5t-23 83.5q-13 -38 -13 -79v-47l-28 38q-6 6 -19.5 28.5t-28.5 70.5t-10 92q13 102 93 144h-197l128 320v46q-58 25 -83 83q-80 52 -126.5 136t-46.5 183q0 2 1 5.5t1 5.5q-57 20 -93.5 69.5t-36.5 111.5h129 q0 -26 18.5 -44.5t44.5 -18.5t45 18.5t19 44.5h128q0 -62 -36.5 -111.5t-93.5 -69.5q0 -2 1 -5.5t1 -5.5q0 -91 62 -164q27 38 66 54v302q0 80 56 136t136 56q23 0 44 -6q115 147 295 186h-2q0 2 -0.5 6t-0.5 6q0 35 23 62t57 32v162h32v-162q34 -5 57 -32t23 -62 q0 -1 -0.5 -3t-0.5 -3q200 -32 325 -192q21 6 44 6q80 0 136 -56t56 -136v-302q39 -16 66 -54q62 73 62 164q0 2 1 5.5t1 5.5q-57 20 -93.5 69.5t-36.5 111.5h128q0 -26 19 -44.5t45 -18.5t44.5 18.5t18.5 44.5zM949 1431q-5 -12 -5 -23q0 -1 0.5 -3t0.5 -4q46 7 79 7 q24 0 49 -3l-1 1v2q0 11 -5 23l-3 6q-1 1 -1.5 2t-0.5 2q-1 1 -2.5 3.5t-2.5 3.5q-5 6 -13 11l-2 2q-18 11 -34 11t-34 -11l-2 -2q-8 -5 -13 -11q-1 -1 -2.5 -3.5t-2.5 -3.5zM1024 -96q130 0 240.5 64.5t175 175t64.5 240.5v512q0 130 -64.5 240.5t-175 175t-240.5 64.5 t-240.5 -64.5t-175 -175t-64.5 -240.5h96v-512h-96q0 -130 64.5 -240.5t175 -175t240.5 -64.5zM416 880h96v16q0 156 87 286q-16 2 -23 2q-66 0 -113 -47t-47 -113v-144zM1472 1184q-7 0 -23 -2q87 -130 87 -286v-16h96v144q0 66 -47 113t-113 47zM1312 864v48h-86 q-17 -69 -73 -114t-129 -45q-86 0 -147.5 61.5t-61.5 147.5t61.5 147t147.5 61q74 0 130.5 -46t72.5 -116h85v48h96v-192h-96zM1024 786q73 0 124 51.5t51 124.5q0 72 -51 123.5t-124 51.5t-124 -51.5t-51 -123.5q0 -73 51 -124.5t124 -51.5zM1024 1090q53 0 90.5 -37.5 t37.5 -90.5t-37.5 -90.5t-90.5 -37.5t-90.5 37.5t-37.5 90.5t37.5 90.5t90.5 37.5zM1344 896h32v128h-32v-128zM102 992h-67q11 -55 55.5 -91.5t101.5 -36.5t101.5 36.5t55.5 91.5h-67q-10 -28 -34.5 -45.5t-55.5 -17.5t-55.5 17.5t-34.5 45.5zM1856 864q57 0 101.5 36.5 t55.5 91.5h-67q-10 -28 -34.5 -45.5t-55.5 -17.5t-55.5 17.5t-34.5 45.5h-67q11 -55 55.5 -91.5t101.5 -36.5zM1312 944v32h-81q0 -2 1 -7t1 -7q0 -3 -1 -9t-1 -9h81zM608 816v48h-64v-48h64zM416 848v-115q15 3 32 3v32h64v80h-96zM1600 768v-32q17 0 32 -3v115h-96v-80h64 zM288 576q0 30 13 63q-77 84 -77 193v1q-1 1 -1 2q-15 -3 -31 -3t-31 3q0 -1 -1 -3q0 -81 34.5 -151.5t95.5 -120.5q-2 10 -2 16zM1758 560q61 50 95.5 120.5t34.5 151.5v1q-1 1 -1 2q-15 -3 -31 -3t-31 3q0 -1 -1 -3q0 -109 -77 -193q13 -33 13 -63q0 -6 -2 -16zM608 752 v32h-64v-32h64zM1152 768h128v-128h-128v128zM512 416v320h-32v-320h32zM1184 672h64v64h-64v-64zM1536 736v-320h32v320h-32zM608 688v32h-64v-32h64zM369 476q5 -4 15 -10q17 -10 32 -13q17 -5 32 -5v256q-15 0 -32 -5q-15 -3 -32 -13q-26 -15 -44 -42q-5 -8 -14 -30 q-6 -24 -6 -38q0 -22 8 -44q12 -34 41 -56zM1720 532q8 22 8 44q0 14 -6 38q-9 23 -14 30q-18 27 -44 42q-17 10 -32 13q-17 5 -32 5v-256q15 0 32 5q15 3 32 13q10 6 15 10q29 22 41 56zM608 624v32h-64v-32h64zM608 560v32h-64v-32h64zM608 496v32h-64v-32h64zM544 464 v-48h64v48h-64zM448 384v32q-17 0 -32 3v-84h98q-2 32 -2 49h-64zM1632 335v84q-15 -3 -32 -3v-32h-64q0 -17 -2 -49h98zM768 384h512v-32h-512v32zM416 96h185q-66 97 -82 210v-1h-103v-209zM1632 305h-103v1q-16 -113 -82 -210h185v209zM384 298l-81 -202h81v202z M1664 298v-202h81zM832 288h384v-32h-384v32zM896 192h256v-32h-256v32zM662 -212q36 81 22 150q-6 28 -18 49.5t-24.5 32.5t-26 18t-20.5 8.5t-9 1.5h-87q-2 0 -10 -2.5t-23.5 -11t-29.5 -21.5t-27 -39t-17 -58q-7 -59 27 -128q12 68 45 101l34 34l-7 -48q-12 -85 50 -189 q64 102 50 189l-7 48l35 -34q31 -32 43 -101zM1656 -84q-4 32 -17 58t-27 39t-29.5 21.5t-23.5 11t-10 2.5h-87q-2 0 -9 -1.5t-20.5 -8.5t-26 -18t-24.5 -32.5t-18 -49.5q-14 -69 22 -150q12 69 43 101l35 34l-7 -48q-14 -87 50 -189q62 104 50 189l-7 48l34 -34 q33 -33 45 -101q34 69 27 128z" />
</font>
</defs>
</svg>
